<?xml version="1.0" standalone="no"?><!DOCTYPE svg PUBLIC "-//W3C//DTD SVG 1.1//EN" "http://www.w3.org/Graphics/SVG/1.1/DTD/svg11.dtd" ><svg xmlns="http://www.w3.org/2000/svg"><metadata>Generated by Glyphter</metadata><defs><font id="Glyphter" horiz-adv-x="0"><font-face units-per-em="1024" ascent="1024" descent="0" font-family="Glyphter" font-weight="normal" /><missing-glyph horiz-adv-x="0" /><glyph unicode="&#x0041;" d="M512.005,0C512.005,0,33.5,468.935,33.5,468.935C33.5,468.935,100.491,535.925,100.491,535.925C100.491,535.925,512.005,133.981,512.005,133.981C512.005,133.981,913.949,535.925,913.949,535.925C913.949,535.925,980.939,468.935,980.939,468.935C980.939,468.935,512.005,0,512.005,0M33.5,1024C33.5,1024,33.5,928.299,33.5,928.299C33.5,928.299,990.509,928.299,990.509,928.299C990.509,928.299,990.509,1024,990.509,1024C990.509,1024,33.5,1024,33.5,1024" class="icon-arrow_margin_bottom"/><glyph unicode="&#x0042;" d="M473.358,38.66C473.358,38.66,0,512.019,0,512.019C0,512.019,473.358,995.038,473.358,995.038C473.358,995.038,550.642,927.415,550.642,927.415C550.642,927.415,135.245,512.019,135.245,512.019C135.245,512.019,550.642,106.283,550.642,106.283C550.642,106.283,473.358,38.66,473.358,38.66M927.396,995.038C927.396,995.038,927.396,29,927.396,29C927.396,29,1024,29,1024,29C1024,29,1024,995.038,1024,995.038C1024,995.038,927.396,995.038,927.396,995.038" class="icon-arrow_margin_left"/><glyph unicode="&#x0043;" d="M554.275,51.894C554.275,51.894,488.514,117.656,488.514,117.656C488.514,117.656,892.477,512.225,892.477,512.225C892.477,512.225,488.514,916.188,488.514,916.188C488.514,916.188,554.275,981.95,554.275,981.95C554.275,981.95,1024,512.225,1024,512.225C1024,512.225,554.275,51.894,554.275,51.894M0,981.95C0,981.95,0,42.5,0,42.5C0,42.5,93.945,42.5,93.945,42.5C93.945,42.5,93.945,981.95,93.945,981.95C93.945,981.95,0,981.95,0,981.95" class="icon-arrow_margin_right"/><glyph unicode="&#x0044;" d="M910.296,483.556C910.296,483.556,512.074,891.259,512.074,891.259C512.074,891.259,104.37,483.556,104.37,483.556C104.37,483.556,38,549.926,38,549.926C38,549.926,512.074,1024,512.074,1024C512.074,1024,976.667,549.926,976.667,549.926C976.667,549.926,910.296,483.556,910.296,483.556M38,94.815C38,94.815,38,0,38,0C38,0,986.148,0,986.148,0C986.148,0,986.148,94.815,986.148,94.815C986.148,94.815,38,94.815,38,94.815" class="icon-arrow_margin_top"/><glyph unicode="&#x0045;" d="M506.828,16C506.828,16,0,533.172,0,533.172C0,533.172,72.404,605.576,72.404,605.576C72.404,605.576,506.828,160.808,506.828,160.808C506.828,160.808,951.596,605.576,951.596,605.576C951.596,605.576,1024,533.172,1024,533.172C1024,533.172,506.828,16,506.828,16M486.141,553.859C486.141,553.859,103.434,936.566,103.434,936.566C103.434,936.566,186.182,1008.97,186.182,1008.97C186.182,1008.97,486.141,709.01,486.141,709.01C486.141,709.01,786.101,1008.97,786.101,1008.97C786.101,1008.97,868.848,936.566,868.848,936.566C868.848,936.566,486.141,553.859,486.141,553.859" class="icon-arrow_offset_bottom"/><glyph unicode="&#x0046;" d="M460.33,47C460.33,47,0,507.33,0,507.33C0,507.33,460.33,977.055,460.33,977.055C460.33,977.055,535.486,911.294,535.486,911.294C535.486,911.294,131.523,507.33,131.523,507.33C131.523,507.33,535.486,112.761,535.486,112.761C535.486,112.761,460.33,47,460.33,47M958.239,169.128C958.239,169.128,610.642,507.33,610.642,507.33C610.642,507.33,958.239,854.927,958.239,854.927C958.239,854.927,1024,789.165,1024,789.165C1024,789.165,742.165,507.33,742.165,507.33C742.165,507.33,1024,234.89,1024,234.89C1024,234.89,958.239,169.128,958.239,169.128" class="icon-arrow_offset_left"/><glyph unicode="&#x0047;" d="M501.985,0C501.985,0,429.581,72.404,429.581,72.404C429.581,72.404,874.348,506.828,874.348,506.828C874.348,506.828,429.581,951.596,429.581,951.596C429.581,951.596,501.985,1024,501.985,1024C501.985,1024,1019.157,506.828,1019.157,506.828C1019.157,506.828,501.985,0,501.985,0M77.904,134.465C77.904,134.465,5.5,206.869,5.5,206.869C5.5,206.869,305.46,506.828,305.46,506.828C305.46,506.828,5.5,817.131,5.5,817.131C5.5,817.131,77.904,889.535,77.904,889.535C77.904,889.535,460.611,506.828,460.611,506.828C460.611,506.828,77.904,134.465,77.904,134.465" class="icon-arrow_offset_right"/><glyph unicode="&#x0048;" d="M72.404,434.424C72.404,434.424,0,506.828,0,506.828C0,506.828,517.172,1024,517.172,1024C517.172,1024,1024,506.828,1024,506.828C1024,506.828,951.596,434.424,951.596,434.424C951.596,434.424,517.172,879.192,517.172,879.192C517.172,879.192,72.404,434.424,72.404,434.424M206.869,0C206.869,0,134.465,72.404,134.465,72.404C134.465,72.404,517.172,444.768,517.172,444.768C517.172,444.768,889.535,72.404,889.535,72.404C889.535,72.404,817.131,0,817.131,0C817.131,0,517.172,299.96,517.172,299.96C517.172,299.96,206.869,0,206.869,0" class="icon-arrow_offset_top"/><glyph unicode="&#x0049;" d="M517.074,483.556C517.074,483.556,43,957.63,43,957.63C43,957.63,109.37,1024,109.37,1024C109.37,1024,517.074,625.778,517.074,625.778C517.074,625.778,915.296,1024,915.296,1024C915.296,1024,981.667,957.63,981.667,957.63C981.667,957.63,517.074,483.556,517.074,483.556M43,94.815C43,94.815,43,0,43,0C43,0,981.667,0,981.667,0C981.667,0,981.667,94.815,981.667,94.815C981.667,94.815,43,94.815,43,94.815" class="icon-arrow_padding_bottom"/><glyph unicode="&#x004a;" d="M958.239,47C958.239,47,497.908,507.33,497.908,507.33C497.908,507.33,958.239,977.055,958.239,977.055C958.239,977.055,1024,911.294,1024,911.294C1024,911.294,629.431,507.33,629.431,507.33C629.431,507.33,1024,112.761,1024,112.761C1024,112.761,958.239,47,958.239,47M0,977.055C0,977.055,0,47,0,47C0,47,93.945,47,93.945,47C93.945,47,93.945,977.055,93.945,977.055C93.945,977.055,0,977.055,0,977.055" class="icon-arrow_padding_left"/><glyph unicode="&#x004b;" d="M65.761,47C65.761,47,0,112.761,0,112.761C0,112.761,394.569,516.725,394.569,516.725C394.569,516.725,0,911.294,0,911.294C0,911.294,65.761,977.055,65.761,977.055C65.761,977.055,535.486,516.725,535.486,516.725C535.486,516.725,65.761,47,65.761,47M930.055,977.055C930.055,977.055,930.055,47,930.055,47C930.055,47,1024,47,1024,47C1024,47,1024,977.055,1024,977.055C1024,977.055,930.055,977.055,930.055,977.055" class="icon-arrow_padding_right"/><glyph unicode="&#x004c;" d="M912.745,0C912.745,0,512.455,390.982,512.455,390.982C512.455,390.982,121.473,0,121.473,0C121.473,0,56.309,65.164,56.309,65.164C56.309,65.164,512.455,530.618,512.455,530.618C512.455,530.618,977.909,65.164,977.909,65.164C977.909,65.164,912.745,0,912.745,0M47,1024C47,1024,47,930.909,47,930.909C47,930.909,977.909,930.909,977.909,930.909C977.909,930.909,977.909,1024,977.909,1024C977.909,1024,47,1024,47,1024" class="icon-arrow_padding_top"/><glyph unicode="&#x004d;" d="M983.655,0C975.086,0,966.517,0,957.948,8.569C957.948,8.569,15.354,951.163,15.354,951.163C-1.785,968.301,-1.785,994.008,15.354,1011.146C15.354,1028.285,58.199,1028.285,66.768,1011.146C66.768,1011.146,1009.362,68.552,1009.362,68.552C1026.5,51.414,1026.5,25.707,1009.362,17.138C1009.362,8.569,992.224,0,983.655,0C983.655,0,983.655,0,983.655,0M41.061,0C32.492,0,23.923,0,15.354,8.569C-1.785,25.707,-1.785,51.414,15.354,59.983C15.354,59.983,957.948,1002.577,957.948,1002.577C975.086,1019.715,1000.793,1019.715,1009.362,1002.577C1017.931,985.439,1026.5,959.732,1009.362,951.163C1009.362,951.163,66.768,8.569,66.768,8.569C58.199,8.569,49.63,0,41.061,0C41.061,0,41.061,0,41.061,0" class="icon-cancel"/><glyph unicode="&#x004e;" d="M854.486,982.057C854.486,982.057,815.877,797.439,815.877,797.439C815.877,797.439,607.041,797.439,607.041,797.439C607.041,797.439,654.599,1024,654.599,1024C654.599,1024,854.486,982.057,854.486,982.057C854.486,982.057,854.486,982.057,854.486,982.057M637.401,63.704C637.401,28.605,665.831,0,701.105,0C736.204,0,764.809,28.43,764.809,63.704C764.809,98.978,736.379,127.408,701.105,127.408C701.105,127.408,701.105,127.408,701.105,127.408C665.831,127.408,637.401,98.978,637.401,63.704C637.401,63.704,637.401,63.704,637.401,63.704M402.592,63.704C402.592,28.605,431.022,0,466.296,0C501.57,0,530,28.43,530,63.704C530,98.802,501.57,127.408,466.296,127.408C466.296,127.408,466.296,127.408,466.296,127.408C431.197,127.232,402.943,98.802,402.943,63.704C402.943,63.704,402.592,63.704,402.592,63.704C402.592,63.704,402.592,63.704,402.592,63.704M548.075,931.515C548.075,931.515,389.781,898.523,389.781,898.523C389.781,898.523,410.665,797.79,410.665,797.79C410.665,797.79,520.172,797.79,520.172,797.79C520.172,797.79,548.075,931.515,548.075,931.515C548.075,931.515,548.075,931.515,548.075,931.515M274.482,853.421C267.463,872.199,249.562,884.659,229.556,884.834C229.556,884.834,124.085,884.834,124.085,884.834C97.41,884.834,76,863.249,76,836.749C76,810.074,97.586,788.664,124.085,788.664C124.085,788.664,196.388,788.664,196.388,788.664C196.388,788.664,344.153,403.458,344.153,403.458C351.173,384.68,369.073,372.22,389.079,372.045C389.079,372.045,723.393,372.045,723.393,372.045C749.19,372.045,770.074,351.161,770.074,325.363C770.074,299.566,749.19,278.682,723.393,278.682C723.393,278.682,723.393,278.682,723.393,278.682C723.393,278.682,363.282,278.682,363.282,278.682C336.607,278.682,315.197,257.097,315.197,230.597C315.197,204.098,336.782,182.512,363.282,182.512C363.282,182.512,723.744,182.512,723.744,182.512C802.54,182.337,866.595,246.216,866.77,325.188C866.77,363.796,851.151,400.825,823.599,427.851C823.599,427.851,942.057,641.075,942.057,641.075C955.043,664.24,946.619,693.723,923.454,706.534C923.454,706.534,923.454,706.534,923.454,706.534C918.365,709.342,912.925,711.096,907.309,711.974C907.309,711.974,328.534,711.974,328.534,711.974C328.534,711.974,274.482,853.421,274.482,853.421C274.482,853.421,274.482,853.421,274.482,853.421" class="icon-cart"/><glyph unicode="&#x004f;" d="M945.493,137.943C945.493,200.407,894.832,250.887,832.549,250.887C770.267,250.887,719.606,200.226,719.606,137.943C719.606,75.48,770.267,25,832.549,25C832.549,25,832.549,25,832.549,25C894.832,25.182,945.493,75.661,945.493,137.943C945.493,137.943,945.493,137.943,945.493,137.943M784.43,137.943C784.43,164.454,806.039,186.062,832.549,186.062C859.06,186.062,880.668,164.454,880.668,137.943C880.668,111.433,859.06,89.824,832.549,89.824C832.549,89.824,832.549,89.824,832.549,89.824C805.857,90.006,784.43,111.433,784.43,137.943C784.43,137.943,784.43,137.943,784.43,137.943M991.07,842.478C991.07,842.478,256.029,842.478,256.029,842.478C256.029,842.478,234.421,932.724,234.421,932.724C225.161,971.582,190.297,999.001,150.349,999.183C150.349,999.183,32.503,999.183,32.503,999.183C14.526,999.183,0,984.656,0,966.68C0,948.703,14.526,934.177,32.503,934.177C32.503,934.177,150.168,934.177,150.168,934.177C160.155,934.177,168.87,927.277,171.049,917.653C171.049,917.653,279.09,464.789,279.09,464.789C241.14,421.755,245.135,355.841,288.351,317.89C307.417,301.003,332.112,291.743,357.533,291.924C357.533,291.924,938.048,291.924,938.048,291.924C956.025,291.924,970.551,306.451,970.551,324.427C970.551,342.404,956.025,356.93,938.048,356.93C938.048,356.93,357.896,356.93,357.896,356.93C336.107,356.93,318.493,374.544,318.493,396.333C318.493,418.123,336.107,435.736,357.896,435.736C357.896,435.736,357.896,435.736,357.896,435.736C357.896,435.736,838.905,435.736,838.905,435.736C893.742,435.555,941.68,472.961,954.935,526.164C954.935,526.164,1023.028,802.349,1023.028,802.349C1027.386,819.781,1016.673,837.394,999.241,841.57C996.699,842.115,994.157,842.478,991.433,842.478C991.433,842.478,991.07,842.478,991.07,842.478C991.07,842.478,991.07,842.478,991.07,842.478M891.563,541.78C885.571,517.63,863.963,500.743,839.086,500.743C839.086,500.743,337.741,500.743,337.741,500.743C337.741,500.743,271.282,777.835,271.282,777.835C271.282,777.835,949.488,777.835,949.488,777.835C949.488,777.835,891.563,541.78,891.563,541.78C891.563,541.78,891.563,541.78,891.563,541.78M358.986,25C421.45,25,471.929,75.661,471.929,137.943C471.929,200.407,421.268,250.887,358.986,250.887C296.704,250.887,246.042,200.226,246.042,137.943C246.042,137.943,246.042,137.943,246.042,137.943C246.042,75.661,296.522,25.182,358.986,25C358.986,25,358.986,25,358.986,25M358.986,186.244C385.497,186.244,407.105,164.636,407.105,138.125C407.105,111.614,385.497,90.006,358.986,90.006C332.475,90.006,310.867,111.433,310.867,137.943C310.867,164.636,332.293,186.244,358.986,186.244C358.986,186.244,358.986,186.244,358.986,186.244C358.986,186.244,358.986,186.244,358.986,186.244" class="icon-cart_hollow"/><glyph unicode="&#x0050;" d="M379.509,159C379.509,159,379.509,159,379.509,159C363.4,159,347.11,165.516,335.345,177.281C335.345,177.281,18.598,494.029,18.598,494.029C-6.199,518.825,-6.199,557.559,18.598,582.356C43.394,607.153,82.128,607.153,106.925,582.356C106.925,582.356,379.509,309.772,379.509,309.772C379.509,309.772,917.075,847.338,917.075,847.338C941.872,872.135,980.606,872.135,1005.402,847.338C1030.199,822.541,1030.199,783.807,1005.402,759.011C1005.402,759.011,423.673,177.462,423.673,177.462C411.908,165.516,395.618,159,379.509,159C379.509,159,379.509,159,379.509,159" class="icon-check"/><glyph unicode="&#x0051;" d="M512,962.56C757.76,962.56,962.56,764.587,962.56,512C962.56,259.413,764.587,61.44,512,61.44C259.413,61.44,61.44,259.413,61.44,512C61.44,764.587,266.24,962.56,512,962.56M512,1024C232.107,1024,0,791.893,0,512C0,232.107,232.107,0,512,0C791.893,0,1024,232.107,1024,512C1024,791.893,791.893,1024,512,1024C512,1024,512,1024,512,1024C512,1024,512,1024,512,1024M512,832.853C512,832.853,512,832.853,512,832.853C512,832.853,512,512,512,512C512,512,512,512,512,512C512,512,512,832.853,512,832.853M477.867,832.853C477.867,832.853,477.867,505.173,477.867,505.173C477.867,505.173,546.133,505.173,546.133,505.173C546.133,505.173,546.133,832.853,546.133,832.853C546.133,832.853,477.867,832.853,477.867,832.853M805.547,512C805.547,512,805.547,512,805.547,512C805.547,512,477.867,512,477.867,512C477.867,512,477.867,512,477.867,512C477.867,512,805.547,512,805.547,512M477.867,546.133C477.867,546.133,477.867,477.867,477.867,477.867C477.867,477.867,805.547,477.867,805.547,477.867C805.547,477.867,805.547,546.133,805.547,546.133C805.547,546.133,477.867,546.133,477.867,546.133" class="icon-clock"/><glyph unicode="&#x0052;" d="M638.581,885.787C638.581,885.787,603.84,895.418,603.84,895.418C599.368,896.966,595.069,896.45,590.769,894.042C586.47,891.634,583.546,888.023,582.17,883.035C582.17,883.035,373.208,160.869,373.208,160.869C371.66,156.054,372.176,151.41,374.584,147.11C376.992,142.811,380.603,139.887,385.591,138.511C385.591,138.511,420.332,128.88,420.332,128.88C424.803,127.332,429.103,127.848,433.403,130.256C437.702,132.664,440.626,136.275,442.002,141.263C442.002,141.263,650.62,863.429,650.62,863.429C652.168,868.244,651.652,872.888,649.244,877.188C647.008,881.487,643.225,884.239,638.581,885.787C638.581,885.787,638.581,885.787,638.581,885.787M325.912,744.759C325.912,749.575,324.02,754.046,320.236,757.658C320.236,757.658,292.203,785.692,292.203,785.692C288.419,789.475,284.12,791.367,279.304,791.367C274.488,791.367,270.017,789.475,266.405,785.692C266.405,785.692,5.676,525.134,5.676,525.134C1.892,521.35,0,517.051,0,512.235C0,507.419,1.892,502.948,5.676,499.336C5.676,499.336,266.233,238.779,266.233,238.779C270.017,234.995,274.316,233.103,279.132,233.103C283.948,233.103,288.419,234.995,292.031,238.779C292.031,238.779,320.064,266.812,320.064,266.812C323.848,270.596,325.74,274.895,325.74,279.711C325.74,284.527,323.848,288.998,320.064,292.61C320.064,292.61,100.267,512.235,100.267,512.235C100.267,512.235,320.064,732.032,320.064,732.032C323.848,735.644,325.912,740.115,325.912,744.759C325.912,744.759,325.912,744.759,325.912,744.759M1018.324,524.962C1018.324,524.962,757.767,785.52,757.767,785.52C753.983,789.303,749.684,791.195,744.868,791.195C740.052,791.195,735.581,789.303,731.969,785.52C731.969,785.52,703.936,757.486,703.936,757.486C700.152,753.702,698.26,749.403,698.26,744.587C698.26,739.771,699.98,735.3,703.936,731.688C703.936,731.688,923.733,511.891,923.733,511.891C923.733,511.891,703.936,292.266,703.936,292.266C700.152,288.482,698.26,284.183,698.26,279.367C698.26,274.551,699.98,270.08,703.936,266.468C703.936,266.468,731.969,238.435,731.969,238.435C735.753,234.651,740.052,232.759,744.868,232.759C749.684,232.759,754.155,234.651,757.767,238.435C757.767,238.435,1018.324,498.992,1018.324,498.992C1022.108,502.776,1024,507.075,1024,511.891C1024,516.879,1021.936,521.178,1018.324,524.962C1018.324,524.962,1018.324,524.962,1018.324,524.962" class="icon-code"/><glyph unicode="&#x0053;" d="M0,114C0,114,113.778,114,113.778,114C113.778,114,113.778,512.222,113.778,512.222C113.778,512.222,0,512.222,0,512.222C0,512.222,0,114,0,114C0,114,0,114,0,114M455.111,114C455.111,114,568.889,114,568.889,114C568.889,114,568.889,910.444,568.889,910.444C568.889,910.444,455.111,910.444,455.111,910.444C455.111,910.444,455.111,114,455.111,114C455.111,114,455.111,114,455.111,114M910.222,739.778C910.222,739.778,1024,739.778,1024,739.778C1024,739.778,1024,114,1024,114C1024,114,910.222,114,910.222,114C910.222,114,910.222,739.778,910.222,739.778C910.222,739.778,910.222,739.778,910.222,739.778" class="icon-compare"/><glyph unicode="&#x0054;" d="M841.17,256.564C841.17,256.564,438.893,256.564,438.893,256.564C337.748,256.564,256.064,338.504,256.064,439.393C256.064,439.393,256.064,841.67,256.064,841.67C256.064,942.815,338.004,1024.499,438.893,1024.499C438.893,1024.499,841.17,1024.499,841.17,1024.499C942.315,1024.499,1023.999,942.559,1023.999,841.67C1023.999,841.67,1023.999,439.393,1023.999,439.393C1024.255,338.504,942.315,256.564,841.17,256.564C841.17,256.564,841.17,256.564,841.17,256.564M914.916,841.158C914.916,881.616,882.14,914.392,841.682,914.392C841.682,914.392,439.15,914.392,439.15,914.392C398.691,914.392,365.915,881.616,365.915,841.158C365.915,841.158,365.915,438.625,365.915,438.625C365.915,398.167,398.691,365.391,439.15,365.391C439.15,365.391,841.682,365.391,841.682,365.391C882.14,365.391,914.916,398.167,914.916,438.625C914.916,438.625,914.916,841.158,914.916,841.158C914.916,841.158,914.916,841.158,914.916,841.158M183.086,109.583C183.086,109.583,511.616,109.583,511.616,109.583C551.562,109.583,584.082,141.591,584.594,181.537C584.594,181.537,694.701,181.537,694.701,181.537C693.677,81.416,612.249,0.5,511.872,0.5C511.872,0.5,182.83,0.5,182.83,0.5C81.684,0.5,0,82.44,0,183.33C0,183.33,0,512.372,0,512.372C0,613.261,81.94,695.201,182.83,695.201C182.83,695.201,182.83,584.07,182.83,584.07C142.628,583.813,110.107,551.293,110.107,510.835C110.107,510.835,110.107,182.305,110.107,182.305C109.851,142.359,142.628,109.583,183.086,109.583C183.086,109.583,183.086,109.583,183.086,109.583" class="icon-copy"/><glyph unicode="&#x0055;" d="M843.644,718.453C813.966,749.327,772.536,763.469,723.935,763.469C697.842,763.469,675.335,758.688,658.802,755.103C658.802,755.103,658.802,778.806,658.802,778.806C658.802,788.366,656.412,795.338,652.827,801.313C658.802,808.484,659.997,815.455,658.802,819.041C658.802,819.041,654.022,943.53,654.022,943.53C652.827,994.521,620.758,1007.468,612.592,1009.858C600.641,1014.638,559.211,1021.809,393.291,1024C393.291,1024,387.316,1024,387.316,1024C221.396,1021.61,180.962,1015.634,168.015,1009.858C159.65,1007.468,127.78,995.716,126.585,943.53C126.585,943.53,123,820.236,123,820.236C123,816.65,123,809.48,128.975,802.508C125.39,796.533,123,789.562,123,780.001C123,780.001,123,767.054,123,767.054C123,451.747,124.195,71.108,132.561,43.82C144.512,5.975,297.285,0,387.515,0C387.515,0,393.491,0,393.491,0C603.429,0,643.664,27.288,648.445,43.82C649.64,48.601,652.03,56.767,654.42,168.31C660.396,171.895,674.538,177.87,686.489,181.257C761.182,206.154,900.013,253.56,901.009,528.632C903.001,615.476,882.684,679.413,843.644,718.453C843.644,718.453,843.644,718.453,843.644,718.453M154.67,943.729C155.865,978.188,173.592,983.964,174.788,983.964C174.788,983.964,179.568,985.159,179.568,985.159C179.568,985.159,180.763,986.354,180.763,986.354C197.295,991.135,298.082,995.915,388.312,997.11C388.312,997.11,393.092,997.11,393.092,997.11C483.123,995.915,583.91,991.135,600.641,986.354C600.641,986.354,601.836,985.159,601.836,985.159C601.836,985.159,605.421,983.964,605.421,983.964C607.812,983.964,625.539,977.989,626.734,943.729C626.734,943.729,627.929,922.417,627.929,922.417C618.368,930.782,610.202,933.173,604.226,933.173C599.446,941.538,593.47,947.315,586.499,948.51C582.914,949.705,580.523,949.705,578.133,949.705C574.548,958.07,568.572,961.656,565.186,962.652C552.239,966.237,535.508,955.481,526.146,948.51C517.781,960.461,509.614,966.237,500.053,967.432C491.688,968.627,485.911,965.042,481.131,961.457C455.038,982.769,412.413,973.408,399.267,969.822C392.096,975.798,386.32,979.383,377.954,979.383C373.174,979.383,369.589,978.188,366.003,975.798C361.223,980.578,356.443,982.968,350.666,984.163C334.134,986.554,316.208,976.993,309.236,971.216C304.456,974.802,299.675,974.802,295.094,974.802C287.924,973.607,280.952,968.826,277.367,965.241C271.391,968.826,264.42,971.216,258.444,970.021C241.912,968.826,226.376,955.879,220.6,949.904C202.872,957.074,187.336,957.074,174.389,949.904C166.024,945.124,160.247,939.148,155.467,930.982C155.467,930.982,155.467,943.729,155.467,943.729C155.467,943.729,154.67,943.729,154.67,943.729M152.28,893.933C157.06,909.271,165.227,929.587,179.568,936.559C190.324,942.534,203.271,941.339,217.413,934.168C217.413,934.168,222.193,931.778,222.193,931.778C222.193,931.778,225.778,935.364,225.778,935.364C225.778,935.364,241.116,954.286,257.847,954.286C263.822,954.286,268.603,953.091,273.184,948.31C273.184,948.31,279.16,943.53,279.16,943.53C279.16,943.53,283.94,949.506,283.94,949.506C285.135,951.896,291.11,957.871,296.887,959.066C298.082,959.066,300.472,959.066,302.862,956.676C302.862,956.676,307.643,953.091,307.643,953.091C307.643,953.091,312.423,956.676,312.423,956.676C318.399,961.457,334.931,972.013,348.077,969.623C352.857,968.428,356.443,966.038,358.833,961.257C358.833,961.257,363.613,952.892,363.613,952.892C363.613,952.892,369.589,960.062,369.589,960.062C369.589,960.062,373.174,963.648,377.954,963.648C382.735,963.648,388.71,958.867,390.901,955.282C390.901,955.282,394.486,951.697,394.486,951.697C394.486,951.697,399.267,952.892,399.267,952.892C399.267,952.892,452.648,969.424,476.351,944.526C476.351,944.526,481.131,938.55,481.131,938.55C481.131,938.55,485.911,944.526,485.911,944.526C485.911,944.526,491.887,950.501,497.862,950.501C505.033,949.306,510.809,943.331,517.98,931.579C517.98,931.579,522.76,923.213,522.76,923.213C522.76,923.213,528.736,929.189,528.736,929.189C537.102,937.555,552.439,948.111,560.804,945.721C563.195,944.526,565.585,942.136,566.78,936.16C566.78,936.16,569.17,927.795,569.17,927.795C569.17,927.795,577.536,931.38,577.536,931.38C577.536,931.38,579.926,932.575,583.511,931.38C588.292,930.185,591.877,925.404,595.462,918.433C595.462,918.433,597.852,913.653,597.852,913.653C597.852,913.653,602.633,914.848,602.633,914.848C602.633,914.848,617.97,917.238,629.921,894.73C629.921,894.73,631.116,894.73,631.116,894.73C631.116,894.73,634.701,815.256,634.701,815.256C634.701,815.256,633.506,814.061,631.116,812.866C519.573,835.374,244.502,838.959,154.471,812.866C153.276,814.061,152.081,815.256,152.081,815.256C152.081,815.256,152.28,893.933,152.28,893.933C152.28,893.933,152.28,893.933,152.28,893.933M150.089,582.212C150.089,582.212,156.064,571.456,156.064,571.456C163.235,559.505,165.625,545.363,165.625,531.221C165.625,517.079,162.04,502.738,156.064,490.986C156.064,490.986,150.089,480.23,150.089,480.23C150.089,511.104,150.089,545.363,150.089,582.212C150.089,582.212,150.089,582.212,150.089,582.212M152.28,250.174C152.28,250.174,159.45,232.447,159.45,232.447C163.036,222.886,165.426,212.329,165.426,201.573C165.426,192.012,164.231,182.651,160.646,173.09C160.646,173.09,154.67,155.363,154.67,155.363C153.475,181.456,152.28,213.524,152.28,250.174C152.28,250.174,152.28,250.174,152.28,250.174M623.149,53.381C611.198,38.044,492.684,27.288,393.092,27.288C393.092,27.288,387.117,27.288,387.117,27.288C288.72,27.288,169.011,38.044,158.255,52.186C158.255,55.771,157.06,62.942,157.06,73.499C215.222,61.548,317.203,55.771,414.405,55.771C499.854,55.771,580.324,60.552,625.539,71.108C624.344,59.357,623.149,54.576,623.149,53.381C623.149,53.381,623.149,53.381,623.149,53.381M588.69,449.357C547.26,449.357,512.801,411.512,512.801,365.103C512.801,318.892,547.26,280.848,588.69,280.848C601.637,280.848,613.588,284.433,624.344,290.409C617.173,272.682,588.69,197.988,627.929,165.919C626.734,136.241,626.734,113.734,625.539,98.396C547.26,74.694,267.408,75.889,154.869,99.592C154.869,99.592,154.869,98.396,154.869,98.396C154.869,109.152,153.674,120.904,153.674,135.245C169.011,150.582,177.377,174.285,177.377,199.183C177.377,225.276,167.816,250.174,151.284,265.511C151.284,280.848,151.284,297.579,151.284,314.112C163.235,292.799,183.352,279.653,204.665,279.653C241.514,279.653,270.993,317.498,270.993,363.907C270.993,410.317,241.315,448.162,204.665,448.162C182.157,448.162,162.04,434.02,150.089,412.508C150.089,427.845,150.089,443.381,150.089,459.914C167.816,475.251,179.767,501.344,179.767,528.632C179.767,557.115,167.816,583.208,150.089,598.545C150.089,613.882,150.089,630.613,150.089,647.146C162.04,624.638,182.157,609.301,205.86,609.301C242.709,609.301,272.188,647.146,272.188,693.555C272.188,739.965,242.51,777.81,205.86,777.81C182.157,777.81,162.04,762.473,150.089,739.965C150.089,749.526,150.089,757.692,150.089,767.253C150.089,767.253,150.089,780.2,150.089,780.2C150.089,787.371,152.479,788.566,153.674,789.761C153.674,789.761,179.767,795.736,179.767,795.736C278.164,813.464,525.947,812.268,629.124,789.761C629.124,789.761,632.709,788.566,632.709,781.395C632.709,781.395,632.709,771.834,632.709,771.834C623.149,776.615,613.787,779.005,603.031,779.005C561.601,779.005,527.142,741.16,527.142,694.75C527.142,648.54,561.601,610.496,603.031,610.496C612.592,610.496,620.758,612.886,630.319,616.472C630.319,616.472,627.929,438.601,627.929,438.601C614.783,444.577,601.836,449.357,588.69,449.357C588.69,449.357,588.69,449.357,588.69,449.357M626.734,420.874C626.734,420.874,625.539,309.331,625.539,309.331C614.783,300.966,601.836,296.384,588.69,296.384C554.231,296.384,525.947,327.258,525.947,366.298C525.947,405.337,554.43,436.211,588.69,436.211C603.031,435.215,615.978,430.435,626.734,420.874C626.734,420.874,626.734,420.874,626.734,420.874M152.28,365.302C152.28,404.342,175.983,435.215,205.661,435.215C235.339,435.215,259.042,404.342,259.042,365.302C259.042,326.262,235.339,295.388,205.661,295.388C176.182,295.189,152.28,327.258,152.28,365.302C152.28,365.302,152.28,365.302,152.28,365.302M152.28,693.555C152.28,732.595,175.983,763.469,205.661,763.469C235.339,763.469,259.042,732.595,259.042,693.555C259.042,654.515,235.339,623.642,205.661,623.642C176.182,623.642,152.28,655.711,152.28,693.555C152.28,693.555,152.28,693.555,152.28,693.555M603.031,649.735C605.421,642.564,610.202,634.398,620.758,627.227C614.783,624.837,608.807,623.642,603.031,623.642C568.572,623.642,540.288,654.515,540.288,693.555C540.288,732.595,568.772,763.469,603.031,763.469C611.397,763.469,623.149,759.883,632.709,755.103C632.709,755.103,632.709,742.156,632.709,742.156C620.758,728.014,591.08,682.999,603.031,649.735C603.031,649.735,603.031,649.735,603.031,649.735M678.721,208.744C663.384,203.963,650.238,199.183,640.876,193.407C627.929,209.939,636.096,245.593,644.461,269.295C646.851,268.1,649.242,268.1,650.437,268.1C652.827,268.1,655.217,268.1,658.802,268.1C702.623,268.1,738.276,282.242,766.76,311.921C834.283,381.834,831.892,508.713,831.892,514.689C828.307,641.569,797.434,705.506,740.667,705.506C698.041,705.506,655.217,666.466,639.88,649.735C631.514,653.32,630.319,658.101,629.124,660.491C623.149,677.023,641.075,710.287,654.022,728.014C666.969,731.599,693.062,738.77,723.935,738.77C766.56,738.77,799.824,725.823,824.722,700.925C859.181,666.466,875.713,609.699,874.518,531.42C873.323,275.072,746.443,231.252,678.721,208.744C678.721,208.744,678.721,208.744,678.721,208.744M651.632,295.189C651.632,295.189,656.412,627.227,656.412,627.227C671.749,643.76,709.793,677.023,740.667,677.023C789.267,677.023,802.413,588.188,804.604,513.494C804.604,512.299,806.995,392.59,746.443,330.843C723.935,307.14,693.062,295.189,657.607,295.189C656.213,293.994,655.018,293.994,651.632,295.189C652.827,293.994,652.827,295.189,651.632,295.189C651.632,295.189,651.632,295.189,651.632,295.189M477.347,365.302C477.347,411.512,439.502,449.556,393.092,449.556C346.683,449.556,308.838,411.711,308.838,365.302C308.838,319.091,346.683,281.047,393.092,281.047C439.303,282.242,477.347,318.892,477.347,365.302C477.347,365.302,477.347,365.302,477.347,365.302M393.092,295.189C354.052,295.189,323.179,326.063,323.179,365.103C323.179,404.142,354.052,435.016,393.092,435.016C432.132,435.016,463.005,404.142,463.005,365.103C463.005,327.258,432.132,295.189,393.092,295.189C393.092,295.189,393.092,295.189,393.092,295.189M412.015,201.573C412.015,155.363,449.859,117.319,496.269,117.319C542.479,117.319,580.523,155.164,580.523,201.573C580.523,247.983,542.679,285.828,496.269,285.828C448.863,284.633,412.015,247.784,412.015,201.573C412.015,201.573,412.015,201.573,412.015,201.573M564.987,201.573C564.987,162.533,534.114,131.66,495.074,131.66C456.034,131.66,425.161,162.533,425.161,201.573C425.161,240.613,456.034,271.486,495.074,271.486C534.114,271.486,564.987,239.617,564.987,201.573C564.987,201.573,564.987,201.573,564.987,201.573M298.281,284.633C252.071,284.633,214.027,246.788,214.027,200.378C214.027,153.968,251.871,116.124,298.281,116.124C344.691,116.124,382.535,153.968,382.535,200.378C382.336,247.784,344.492,284.633,298.281,284.633C298.281,284.633,298.281,284.633,298.281,284.633M298.281,131.66C259.241,131.66,228.368,162.533,228.368,201.573C228.368,240.613,259.241,271.486,298.281,271.486C337.321,271.486,368.194,240.613,368.194,201.573C368.194,162.533,337.321,131.66,298.281,131.66C298.281,131.66,298.281,131.66,298.281,131.66M495.074,613.085C448.863,613.085,410.819,575.241,410.819,528.831C410.819,482.421,448.664,444.577,495.074,444.577C541.284,444.577,579.328,482.421,579.328,528.831C579.129,576.237,541.284,613.085,495.074,613.085C495.074,613.085,495.074,613.085,495.074,613.085M495.074,460.113C456.034,460.113,425.161,490.986,425.161,530.026C425.161,569.066,456.034,599.939,495.074,599.939C534.114,599.939,564.987,569.066,564.987,530.026C564.987,490.986,534.114,460.113,495.074,460.113C495.074,460.113,495.074,460.113,495.074,460.113M382.336,530.026C382.336,576.237,344.492,614.28,298.082,614.28C251.672,614.28,213.827,576.436,213.827,530.026C213.827,483.816,251.672,445.772,298.082,445.772C344.492,445.772,382.336,483.816,382.336,530.026C382.336,530.026,382.336,530.026,382.336,530.026M228.169,530.026C228.169,569.066,259.042,599.939,298.082,599.939C337.122,599.939,367.995,569.066,367.995,530.026C367.995,490.986,337.122,460.113,298.082,460.113C260.237,460.113,228.169,490.787,228.169,530.026C228.169,530.026,228.169,530.026,228.169,530.026M393.092,610.695C439.303,610.695,477.347,648.54,477.347,694.95C477.347,741.359,439.502,779.204,393.092,779.204C346.683,779.204,308.838,741.359,308.838,694.95C310.033,647.345,346.882,610.695,393.092,610.695C393.092,610.695,393.092,610.695,393.092,610.695M393.092,763.668C432.132,763.668,463.005,732.794,463.005,693.755C463.005,654.715,432.132,623.841,393.092,623.841C354.052,623.841,323.179,655.91,323.179,693.755C323.179,731.599,355.048,763.668,393.092,763.668C393.092,763.668,393.092,763.668,393.092,763.668" class="icon-cup"/><glyph unicode="&#x0056;" d="M591.671,0C591.671,0,591.671,467.097,591.671,467.097C591.671,467.097,748.462,467.097,748.462,467.097C748.462,467.097,771.938,649.126,771.938,649.126C771.938,649.126,591.671,649.126,591.671,649.126C591.671,649.126,591.671,765.357,591.671,765.357C591.671,818.045,606.297,853.975,681.886,853.975C681.886,853.975,778.288,854.016,778.288,854.016C778.288,854.016,778.288,1016.83,778.288,1016.83C761.614,1019.043,704.379,1024,637.844,1024C498.874,1024,403.701,939.151,403.701,783.384C403.701,783.384,403.701,649.126,403.701,649.126C403.701,649.126,246.5,649.126,246.5,649.126C246.5,649.126,246.5,467.097,246.5,467.097C246.5,467.097,403.701,467.097,403.701,467.097C403.701,467.097,403.701,0,403.701,0C403.701,0,591.671,0,591.671,0C591.671,0,591.671,0,591.671,0C591.671,0,591.671,0,591.671,0" class="icon-facebook"/><glyph unicode="&#x0057;" d="M511.894,12.761C416.204,12.761,338.766,90.199,338.766,185.889C338.766,186.15,338.766,186.15,338.766,186.41C338.766,186.41,338.766,400.474,338.766,400.474C338.766,426.808,330.423,452.621,314.778,474.002C314.778,474.002,15.454,883.617,15.454,883.617C15.454,883.617,12.847,887.528,12.847,887.528C-10.88,925.595,0.592,975.656,38.66,999.383C51.696,1007.466,66.558,1011.638,81.681,1011.638C81.681,1011.638,943.151,1011.638,943.151,1011.638C987.997,1011.638,1024.239,975.396,1024.5,930.549C1024.5,915.426,1020.328,900.304,1012.245,887.528C1012.245,887.528,1009.638,883.617,1009.638,883.617C1009.638,883.617,709.01,473.741,709.01,473.741C693.366,452.361,685.023,426.808,685.023,400.213C685.023,400.213,685.023,186.15,685.023,186.15C684.762,92.024,609.67,15.107,515.805,12.5C515.805,12.5,511.894,12.5,511.894,12.5C511.894,12.5,511.894,12.761,511.894,12.761M165.638,887.528C165.638,887.528,414.901,547.268,414.901,547.268C446.189,504.768,463.137,453.143,462.876,400.474C462.876,400.474,462.876,186.41,462.876,186.41C462.876,159.294,484.778,137.392,511.634,137.392C511.894,137.392,512.416,137.392,512.677,137.392C539.272,138.174,560.391,159.815,560.652,186.41C560.652,186.41,560.652,400.474,560.652,400.474C560.391,453.403,577.339,504.768,608.627,547.268C608.627,547.268,858.151,887.528,858.151,887.528C858.151,887.528,165.638,887.528,165.638,887.528C165.638,887.528,165.638,887.528,165.638,887.528" class="icon-filter"/><glyph unicode="&#x0058;" d="M284.859,199.01C284.859,199.01,171,199.01,171,199.01C171,199.01,439.347,1024,439.347,1024C439.347,1024,552.841,1024,552.841,1024C552.841,1024,284.859,199.01,284.859,199.01M740.173,199.01C740.173,199.01,853.788,199.01,853.788,199.01C853.788,199.01,569.384,1024,569.384,1024C569.384,1024,455.769,1024,455.769,1024C455.769,1024,740.173,199.01,740.173,199.01M313.324,483.9C313.324,483.9,313.324,370.771,313.324,370.771C313.324,370.771,681.905,370.771,681.905,370.771C681.905,370.771,681.905,483.9,681.905,483.9C681.905,483.9,313.324,483.9,313.324,483.9M171,113.859C171,113.859,171,0,171,0C171,0,853.788,0,853.788,0C853.788,0,853.788,113.859,853.788,113.859C853.788,113.859,171,113.859,171,113.859" class="icon-font"/><glyph unicode="&#x0059;" d="M171.268,427.631C171.268,427.631,169.357,425.72,169.357,425.72C169.357,425.72,510.077,85,510.077,85C510.077,85,511.988,86.911,511.988,86.911C511.988,86.911,513.899,85,513.899,85C513.899,85,854.619,425.72,854.619,425.72C854.619,425.72,852.708,427.631,852.708,427.631C852.708,427.631,953.415,528.338,953.415,528.338C1047.624,622.547,1047.433,774.849,953.415,869.058C859.397,963.076,706.904,963.076,612.694,869.058C612.694,869.058,511.988,768.351,511.988,768.351C511.988,768.351,411.473,868.867,411.473,868.867C317.263,963.076,164.771,963.076,70.561,869.058C-23.457,775.04,-23.648,622.547,70.752,528.147C70.752,528.147,171.268,427.631,171.268,427.631C171.268,427.631,171.268,427.631,171.268,427.631" class="icon-heart"/><glyph unicode="&#x005a;" d="M1022.921,508.114C1022.921,432.698,1024.014,356.19,1022.921,280.774C1021.828,198.801,989.039,128.85,928.925,73.108C895.043,42.505,854.602,20.645,810.883,9.715C789.024,4.25,766.071,0.972,743.119,0.972C589.009,0.972,435.991,-1.214,281.881,0.972C171.491,3.157,88.424,55.62,33.775,150.71C10.823,192.243,0.986,237.055,0.986,282.96C0.986,435.977,-0.107,590.087,0.986,743.104C2.079,851.309,53.449,933.283,147.445,987.932C190.071,1013.07,237.069,1024,286.253,1024C439.27,1024,591.194,1024,744.212,1024C811.976,1024,872.09,999.954,924.553,955.142C974.83,911.423,1006.527,856.774,1018.549,791.195C1021.828,773.708,1022.921,756.22,1022.921,738.732C1024.014,661.131,1024.014,584.622,1022.921,508.114C1024.014,508.114,1024.014,508.114,1022.921,508.114C1022.921,508.114,1022.921,508.114,1022.921,508.114M511.407,228.311C668.796,228.311,795.582,355.097,795.582,512.486C795.582,668.782,669.889,795.567,514.686,796.66C356.204,798.846,227.232,669.875,227.232,512.486C228.325,355.097,355.111,228.311,511.407,228.311C511.407,228.311,511.407,228.311,511.407,228.311M910.344,853.495C910.344,885.192,884.113,910.33,853.509,910.33C821.813,910.33,796.675,885.192,796.675,853.495C796.675,821.799,821.813,796.66,853.509,796.66C884.113,796.66,910.344,821.799,910.344,853.495C910.344,853.495,910.344,853.495,910.344,853.495M512.5,682.991C606.496,682.991,683.005,606.482,683.005,512.486C683.005,418.49,606.496,341.981,512.5,341.981C418.504,341.981,341.995,418.49,341.995,512.486C341.995,606.482,417.411,682.991,512.5,682.991C512.5,682.991,512.5,682.991,512.5,682.991" class="icon-instagram"/><glyph unicode="&#x0061;" d="M538.025,922.774C616.211,844.588,642.494,735.702,621.512,634.767C621.512,634.767,1002.945,253.334,1002.945,253.334C1009.791,246.487,1013.988,237.432,1014.65,227.714C1014.65,227.714,1023.927,51.022,1023.927,51.022C1025.252,29.378,1008.466,10.604,986.821,9.5C985.055,9.5,983.067,9.5,981.3,9.5C981.3,9.5,758.227,28.053,758.227,28.053C737.687,29.82,722.005,47.047,722.226,67.587C722.226,67.587,722.226,139.589,722.226,139.589C722.226,139.589,650.224,139.589,650.224,139.589C628.359,139.589,610.69,157.258,610.69,178.903C610.69,178.903,610.69,178.903,610.69,179.124C610.69,179.124,610.69,251.346,610.69,251.346C610.69,251.346,538.688,251.346,538.688,251.346C528.086,251.125,517.927,255.322,510.417,262.61C510.417,262.61,379.666,393.362,379.666,393.362C278.952,372.38,170.065,398.442,92.1,476.407C-30.7,599.208,-30.7,799.752,92.1,922.553C214.68,1045.574,415.225,1045.574,538.025,922.774C538.025,922.774,538.025,922.774,538.025,922.774C538.025,922.774,538.025,922.774,538.025,922.774M482.367,866.895C389.605,959.658,240.521,959.658,147.758,866.895C54.995,774.132,54.995,625.049,147.758,532.286C211.588,468.456,302.363,448.799,382.758,472.652C396.672,476.628,411.47,472.873,421.63,462.713C421.63,462.713,554.369,329.974,554.369,329.974C554.369,329.974,649.562,329.974,649.562,329.974C671.427,329.974,689.096,312.305,689.096,290.66C689.096,290.66,689.096,290.66,689.096,290.439C689.096,290.439,689.096,218.438,689.096,218.438C689.096,218.438,761.098,218.438,761.098,218.438C782.964,218.438,800.633,200.768,800.633,179.124C800.633,179.124,800.633,179.124,800.633,178.903C800.633,178.903,800.633,104.03,800.633,104.03C800.633,104.03,942.649,92.103,942.649,92.103C942.649,92.103,936.464,208.057,936.464,208.057C936.464,208.057,551.498,593.023,551.498,593.023C541.338,603.404,537.584,618.423,542.001,632.337C566.075,712.732,546.197,803.286,482.367,866.895C482.367,866.895,482.367,866.895,482.367,866.895C482.367,866.895,482.367,866.895,482.367,866.895M314.952,848.342C355.591,807.703,355.591,740.34,314.952,699.701C274.313,659.062,206.95,659.062,166.311,699.701C125.672,740.34,125.672,807.703,166.311,848.342C206.95,889.202,274.313,889.202,314.952,848.342C314.952,848.342,314.952,848.342,314.952,848.342M259.295,792.685C248.693,803.286,232.791,803.286,222.189,792.685C211.588,782.083,211.588,766.181,222.189,755.579C232.791,744.978,248.693,744.978,259.295,755.579C269.896,766.181,269.896,782.083,259.295,792.685C259.295,792.685,259.295,792.685,259.295,792.685" class="icon-key"/><glyph unicode="&#x0062;" d="M1006.615,215.683C1006.615,215.683,826.463,492.424,826.463,492.424C788.368,550.918,722.992,553.376,680.719,498.323C680.719,498.323,550.704,329.476,550.704,329.476C508.185,274.423,439.123,274.668,397.096,329.722C397.096,329.722,330.245,417.463,330.245,417.463C288.218,472.762,219.401,472.762,177.62,417.217C177.62,417.217,21.062,210.522,21.062,210.522C-20.966,154.977,1.891,110,71.937,110C71.937,110,948.858,110,948.858,110C1018.412,110,1044.464,157.434,1006.615,215.683C1006.615,215.683,1006.615,215.683,1006.615,215.683M451.166,627.354C531.042,627.354,596.172,691.747,596.172,770.886C596.172,850.271,531.288,914.664,451.166,914.664C371.289,914.664,306.405,850.271,306.405,770.886C306.405,691.747,371.289,627.354,451.166,627.354C451.166,627.354,451.166,627.354,451.166,627.354" class="icon-landscape"/><glyph unicode="&#x0063;" d="M1009.032,405.661C1009.032,405.661,864.516,476.371,864.516,476.371C864.516,476.371,578.925,336.5,578.925,336.5C558.28,326.522,535.226,321.016,512.172,321.016C489.118,321.016,465.892,326.349,445.247,336.5C445.247,336.5,159.656,476.543,159.656,476.543C159.656,476.543,14.968,405.661,14.968,405.661C5.849,401.188,0,392.07,0,382.091C0,372.113,5.849,362.995,14.968,358.522C14.968,358.522,460.559,140.371,460.559,140.371C476.731,132.457,494.452,128.5,512.172,128.5C529.892,128.5,547.613,132.457,563.613,140.371C563.613,140.371,1009.032,358.522,1009.032,358.522C1018.323,362.995,1024,372.113,1024,382.091C1024,392.07,1018.323,401.188,1009.032,405.661C1009.032,405.661,1009.032,405.661,1009.032,405.661M14.968,615.554C14.968,615.554,460.559,397.403,460.559,397.403C476.731,389.489,494.452,385.532,512.172,385.532C529.892,385.532,547.613,389.489,563.613,397.403C563.613,397.403,1009.032,615.554,1009.032,615.554C1018.323,620.027,1024,629.145,1024,638.952C1024,648.93,1018.151,658.048,1009.032,662.522C1009.032,662.522,563.613,880.5,563.613,880.5C548.817,887.726,529.376,895.984,513.204,895.984C493.419,895.984,475.527,887.726,460.731,880.5C460.731,880.5,14.968,662.522,14.968,662.522C5.849,658.048,0,648.93,0,638.952C0,628.973,5.849,620.027,14.968,615.554C14.968,615.554,14.968,615.554,14.968,615.554M491.355,823.382C497.72,826.478,504.946,828.199,512.172,828.199C519.398,828.199,526.624,826.478,533.161,823.382C533.161,823.382,909.935,638.952,909.935,638.952C909.935,638.952,532.989,454.349,532.989,454.349C526.624,451.081,519.398,449.532,512.172,449.532C504.946,449.532,497.72,451.253,491.183,454.349C491.183,454.349,114.237,638.952,114.237,638.952C114.237,638.952,491.355,823.382,491.355,823.382C491.355,823.382,491.355,823.382,491.355,823.382" class="icon-layer_down"/><glyph unicode="&#x0064;" d="M1009.701,400.413C1009.701,400.413,868.97,474.047,868.97,474.047C868.97,474.047,795.336,435.51,795.336,435.51C795.336,435.51,910.26,375.467,910.26,375.467C910.26,375.467,533.487,178.478,533.487,178.478C527.122,175.037,519.896,173.317,512.67,173.317C505.444,173.317,498.219,175.209,491.681,178.478C491.681,178.478,114.908,375.295,114.908,375.295C114.908,375.295,229.833,435.338,229.833,435.338C229.833,435.338,156.198,473.875,156.198,473.875C156.198,473.875,15.468,400.413,15.468,400.413C6.349,395.596,0.5,385.961,0.5,375.295C0.5,364.8,6.349,354.994,15.468,350.177C15.468,350.177,461.057,117.231,461.057,117.231C477.229,108.801,494.95,104.5,512.498,104.5C530.219,104.5,547.767,108.801,563.939,117.231C563.939,117.231,1009.529,350.177,1009.529,350.177C1018.819,354.994,1024.496,364.628,1024.496,375.295C1024.668,385.789,1018.819,395.596,1009.701,400.413C1009.701,400.413,1009.701,400.413,1009.701,400.413M15.468,624.412C15.468,624.412,461.057,391.467,461.057,391.467C477.229,383.037,494.95,378.736,512.498,378.736C530.219,378.736,547.767,383.037,563.939,391.467C563.939,391.467,1009.529,624.412,1009.529,624.412C1018.819,629.229,1024.496,638.864,1024.496,649.53C1024.496,660.025,1018.647,669.831,1009.529,674.648C1009.529,674.648,564.111,907.594,564.111,907.594C547.939,916.024,530.219,920.325,512.498,920.325C494.778,920.325,477.229,916.024,461.057,907.594C461.057,907.594,15.468,674.648,15.468,674.648C6.349,669.831,0.5,660.197,0.5,649.53C0.5,638.864,6.349,629.229,15.468,624.412C15.468,624.412,15.468,624.412,15.468,624.412" class="icon-layer_up"/><glyph unicode="&#x0065;" d="M258.653,585.549C275.697,602.593,275.697,627.805,258.653,644.849C241.608,661.894,216.397,661.894,199.352,644.849C199.352,644.849,93.534,541.162,93.534,541.162C34.234,481.861,0.5,401.61,0.5,317.098C0.5,232.586,34.234,152.335,93.534,93.034C154.966,31.603,237.347,0,317.598,0C397.849,0,480.231,31.603,541.662,93.034C541.662,93.034,645.349,196.722,645.349,196.722C662.394,213.766,662.394,238.978,645.349,256.022C628.305,273.067,603.093,273.067,586.049,256.022C586.049,256.022,482.361,152.335,482.361,152.335C391.458,61.431,243.384,61.431,152.48,152.335C108.093,196.722,85.012,253.892,85.012,317.098C85.012,380.305,108.093,437.475,152.48,481.861C152.48,481.861,258.653,585.549,258.653,585.549C258.653,585.549,258.653,585.549,258.653,585.549M766.081,437.475C749.036,420.43,749.036,395.219,766.081,378.174C774.603,369.652,785.256,365.391,795.554,365.391C806.206,365.391,816.859,369.652,825.026,378.174C825.026,378.174,930.844,483.992,930.844,483.992C990.145,543.293,1023.879,623.544,1023.879,708.056C1023.879,792.568,990.145,872.819,930.844,932.12C808.337,1054.627,605.224,1054.627,482.717,932.12C482.717,932.12,376.899,828.432,376.899,828.432C359.854,811.388,359.854,786.176,376.899,769.132C393.943,752.087,419.155,752.087,436.199,769.132C436.199,769.132,542.017,872.819,542.017,872.819C632.921,963.723,780.995,963.723,871.899,872.819C916.285,828.432,939.366,771.262,939.366,708.056C939.366,644.849,914.155,585.549,871.899,541.162C871.899,541.162,766.081,437.475,766.081,437.475C766.081,437.475,766.081,437.475,766.081,437.475M691.866,691.366C674.822,708.411,649.61,708.411,632.566,691.366C632.566,691.366,332.512,390.958,332.512,390.958C315.468,373.913,315.468,348.702,332.512,331.657C341.034,323.135,351.687,318.874,361.985,318.874C372.283,318.874,383.29,323.135,391.458,331.657C391.458,331.657,689.381,629.58,689.381,629.58C708.911,646.98,708.911,674.322,691.866,691.366C691.866,691.366,691.866,691.366,691.866,691.366" class="icon-linked"/><glyph unicode="&#x0066;" d="M831.976,860.301C760.294,957.406,650.382,1018.765,537.794,1024.5C537.029,1024.5,536.264,1024.5,535.309,1024.5C535.309,1024.5,488.668,1024.5,488.668,1024.5C487.903,1024.5,487.138,1024.5,486.374,1024.5C370.154,1018.574,257.947,953.965,186.266,851.699C120.127,757.27,100.247,645.064,131.405,543.944C131.596,543.371,131.787,542.798,131.978,542.224C162.754,454.677,208.821,368.467,277.063,270.789C295.413,244.41,315.484,217.266,340.143,185.153C356.582,163.744,374.741,140.423,397.297,112.133C397.297,112.133,419.28,84.416,419.28,84.416C436.674,62.433,453.878,40.642,470.89,18.659C479.683,7.19,493.255,0.5,507.783,0.5C507.783,0.5,517.914,0.5,517.914,0.5C532.633,0.5,546.395,7.381,555.188,19.042C576.98,47.906,599.918,77.343,622.092,105.633C622.092,105.633,632.414,118.823,632.414,118.823C650,141.188,667.395,163.552,684.789,186.108C709.83,218.795,729.71,245.748,747.487,270.98C819.742,373.819,867.148,464.043,896.777,554.84C897.159,555.796,897.35,556.943,897.732,557.899C923.156,659.018,899.262,769.312,831.976,860.301C831.976,860.301,831.976,860.301,831.976,860.301M807.891,582.175C781.13,500.935,737.738,419.122,671.409,324.693C654.396,300.608,635.281,274.612,611.005,242.88C593.992,220.516,576.597,198.533,559.394,176.551C559.394,176.551,549.072,163.361,549.072,163.361C537.029,148.069,524.795,132.586,512.753,116.72C506.062,125.131,499.372,133.733,492.682,142.143C492.682,142.143,470.699,169.86,470.699,169.86C448.335,197.96,430.557,220.707,414.501,241.734C390.798,272.7,371.492,298.888,353.906,324.12C290.826,414.344,248.39,493.098,220.673,572.044C198.117,645.446,213.409,727.832,262.726,798.367C316.822,875.784,403.987,926.821,490.006,931.6C490.006,931.6,534.162,931.6,534.162,931.6C618.842,926.821,701.993,879.607,757.045,805.058C807.318,736.817,825.859,655.768,807.891,582.175C807.891,582.175,807.891,582.175,807.891,582.175M503.386,829.334C397.488,829.334,311.279,743.125,311.279,637.227C311.279,531.328,397.488,445.119,503.386,445.119C609.284,445.119,695.494,531.328,695.494,637.227C695.494,743.125,609.284,829.334,503.386,829.334C503.386,829.334,503.386,829.334,503.386,829.334M503.386,538.019C448.717,538.019,404.37,582.366,404.37,637.035C404.37,691.705,448.717,736.052,503.386,736.052C558.056,736.052,602.403,691.705,602.403,637.035C602.403,582.557,557.865,538.019,503.386,538.019C503.386,538.019,503.386,538.019,503.386,538.019" class="icon-location"/><glyph unicode="&#x0067;" d="M85,192.906C85,66.247,299.549,0,512.404,0C725.259,0,939.808,66.247,939.808,192.906C939.808,267.245,865.468,320.882,761.205,352.312C738.809,321.07,716.413,292.464,694.017,266.492C789.247,245.037,839.685,210.408,839.685,192.906C839.685,166.181,725.259,100.876,513.157,100.876C301.054,100.876,186.44,165.993,186.44,192.906C186.44,210.597,236.502,245.037,332.108,266.492C309.712,292.464,286.751,321.07,264.92,352.312C159.151,320.694,85,267.245,85,192.906C85,192.906,85,192.906,85,192.906M465.73,254.259C491.89,228.852,533.294,228.852,559.454,254.259C643.203,336.691,810.137,526.021,810.137,726.643C809.949,890.942,676.703,1024,512.404,1024C506.005,1024,499.606,1023.812,493.207,1023.435C335.683,1011.955,214.106,880.591,214.67,722.691C216.74,523.01,382.357,335.75,465.73,254.259C465.73,254.259,465.73,254.259,465.73,254.259M393.273,726.266C393.273,791.949,446.534,845.398,512.404,845.398C578.274,845.398,631.535,792.137,631.535,726.266C631.535,660.396,578.274,607.135,512.404,607.135C446.534,607.135,393.273,660.584,393.273,726.266C393.273,726.266,393.273,726.266,393.273,726.266C393.273,726.266,393.273,726.266,393.273,726.266" class="icon-location_2"/><glyph unicode="&#x0068;" d="M800.559,0C800.559,0,224.484,0,224.484,0C171.504,0,128.5,43.004,128.5,95.984C128.5,95.984,128.5,415.93,128.5,415.93C128.5,469.082,171.504,511.914,224.484,511.914C224.484,511.914,256.478,511.914,256.478,511.914C256.478,511.914,256.478,768.043,256.478,768.043C256.478,909.267,371.04,1024,512.435,1024C653.659,1024,768.392,909.439,768.392,768.043C768.392,768.043,768.392,512.086,768.392,512.086C768.392,512.086,800.387,512.086,800.387,512.086C853.367,512.086,896.371,469.254,896.371,416.102C896.371,416.102,896.371,96.156,896.371,96.156C896.543,43.004,853.539,0,800.559,0C800.559,0,800.559,0,800.559,0C800.559,0,800.559,0,800.559,0M640.586,768.043C640.586,838.741,583.305,896.022,512.608,896.022C442.082,896.022,384.629,838.741,384.629,768.043C384.629,768.043,384.629,512.086,384.629,512.086C384.629,512.086,640.586,512.086,640.586,512.086C640.586,512.086,640.586,768.043,640.586,768.043C640.586,768.043,640.586,768.043,640.586,768.043C640.586,768.043,640.586,768.043,640.586,768.043" class="icon-lock"/><glyph unicode="&#x0069;" d="M550.4,973.1C550.4,973.1,960,973.1,960,973.1C995.341,973.1,1024,944.441,1024,909.1C1024,909.1,1024,115.5,1024,115.5C1024,80.159,995.341,51.5,960,51.5C960,51.5,550.4,51.5,550.4,51.5C515.059,51.5,486.4,80.159,486.4,115.5C486.4,115.5,486.4,153.9,486.4,153.9C486.4,189.241,515.059,217.9,550.4,217.9C550.4,217.9,768,217.9,768,217.9C803.341,217.9,832,246.559,832,281.9C832,281.9,832,742.7,832,742.7C832,778.041,803.341,806.7,768,806.7C768,806.7,550.4,806.7,550.4,806.7C515.059,806.7,486.4,835.359,486.4,870.7C486.4,870.7,486.4,909.1,486.4,909.1C486.4,944.441,515.059,973.1,550.4,973.1C550.4,973.1,550.4,973.1,550.4,973.1M550.4,973.1C550.4,973.1,960,973.1,960,973.1C995.341,973.1,1024,944.441,1024,909.1C1024,909.1,1024,115.5,1024,115.5C1024,80.159,995.341,51.5,960,51.5C960,51.5,550.4,51.5,550.4,51.5C515.059,51.5,486.4,80.159,486.4,115.5C486.4,115.5,486.4,153.9,486.4,153.9C486.4,189.241,515.059,217.9,550.4,217.9C550.4,217.9,768,217.9,768,217.9C803.341,217.9,832,246.559,832,281.9C832,281.9,832,742.7,832,742.7C832,778.041,803.341,806.7,768,806.7C768,806.7,550.4,806.7,550.4,806.7C515.059,806.7,486.4,835.359,486.4,870.7C486.4,870.7,486.4,909.1,486.4,909.1C486.4,944.441,515.059,973.1,550.4,973.1C550.4,973.1,550.4,973.1,550.4,973.1M0,537.9C0,537.9,0,486.7,0,486.7C0,465.49,17.19,448.3,38.4,448.3C38.4,448.3,345.6,448.3,345.6,448.3C352.666,448.3,358.4,442.566,358.4,435.5C358.4,435.5,358.4,300.716,358.4,300.716C358.63,281.017,380.109,268.946,397.056,278.994C398.464,279.839,399.795,280.812,401.024,281.9C401.024,281.9,646.656,501.292,646.656,501.292C655.155,506.22,655.155,518.508,646.656,523.436C646.656,523.436,401.024,742.7,401.024,742.7C386.304,755.807,362.918,748.063,358.925,728.774C358.592,727.161,358.426,725.522,358.4,723.884C358.4,723.884,358.4,589.1,358.4,589.1C358.4,582.034,352.666,576.3,345.6,576.3C345.6,576.3,38.4,576.3,38.4,576.3C17.19,576.3,0,559.11,0,537.9C0,537.9,0,537.9,0,537.9" class="icon-login"/><glyph unicode="&#x006a;" d="M817.726,93.205C817.726,93.205,489.738,93.205,489.738,93.205C477.644,93.205,467.844,83.405,467.844,71.311C467.844,71.311,467.844,21.894,467.844,21.894C467.844,9.8,477.644,0,489.738,0C489.738,0,827.318,0,827.318,0C873.399,0,910.931,37.532,910.931,83.822C910.931,83.822,910.931,940.178,910.931,940.178C910.931,986.468,873.399,1024,827.318,1024C827.318,1024,489.321,1024,489.321,1024C477.436,1024,468.053,1014.408,468.053,1002.732C468.053,1002.732,468.053,952.272,468.053,952.272C468.053,940.387,477.644,931.004,489.321,931.004C489.321,931.004,817.935,931.004,817.935,931.004C817.935,931.004,817.935,93.205,817.935,93.205C817.935,93.205,817.726,93.205,817.726,93.205M135.268,465.398C135.268,465.398,545.619,465.398,545.619,465.398C545.619,465.398,420.303,340.082,420.303,340.082C415.925,335.704,415.925,328.406,420.303,324.027C420.303,324.027,470.138,274.193,470.138,274.193C474.516,269.814,481.814,269.814,486.193,274.193C486.193,274.193,723.896,511.896,723.896,511.896C723.896,511.896,486.193,749.599,486.193,749.599C481.814,753.978,474.516,753.978,470.138,749.599C470.138,749.599,420.303,699.765,420.303,699.765C415.925,695.386,415.925,688.088,420.303,683.709C420.303,683.709,545.619,558.394,545.619,558.394C545.619,558.394,135.268,558.394,135.268,558.394C123.592,558.394,114,548.802,114,537.126C114,537.126,114,486.666,114,486.666C114,474.989,123.592,465.398,135.268,465.398C135.268,465.398,135.268,465.398,135.268,465.398" class="icon-login_2"/><glyph unicode="&#x006b;" d="M550.388,973.123C550.388,973.123,959.998,973.123,959.998,973.123C995.34,973.123,1024,944.463,1024,909.121C1024,909.121,1024,115.502,1024,115.502C1024,80.16,995.34,51.5,959.998,51.5C959.998,51.5,550.388,51.5,550.388,51.5C515.046,51.5,486.387,80.16,486.387,115.502C486.387,115.502,486.387,153.903,486.387,153.903C486.387,189.244,515.046,217.904,550.388,217.904C550.388,217.904,767.994,217.904,767.994,217.904C803.335,217.904,831.995,246.564,831.995,281.906C831.995,281.906,831.995,742.717,831.995,742.717C831.995,778.059,803.335,806.719,767.994,806.719C767.994,806.719,550.388,806.719,550.388,806.719C515.046,806.719,486.387,835.379,486.387,870.72C486.387,870.72,486.387,909.121,486.387,909.121C486.387,944.463,515.046,973.123,550.388,973.123C550.388,973.123,550.388,973.123,550.388,973.123M550.388,973.123C550.388,973.123,959.998,973.123,959.998,973.123C995.34,973.123,1024,944.463,1024,909.121C1024,909.121,1024,115.502,1024,115.502C1024,80.16,995.34,51.5,959.998,51.5C959.998,51.5,550.388,51.5,550.388,51.5C515.046,51.5,486.387,80.16,486.387,115.502C486.387,115.502,486.387,153.903,486.387,153.903C486.387,189.244,515.046,217.904,550.388,217.904C550.388,217.904,767.994,217.904,767.994,217.904C803.335,217.904,831.995,246.564,831.995,281.906C831.995,281.906,831.995,742.717,831.995,742.717C831.995,778.059,803.335,806.719,767.994,806.719C767.994,806.719,550.388,806.719,550.388,806.719C515.046,806.719,486.387,835.379,486.387,870.72C486.387,870.72,486.387,909.121,486.387,909.121C486.387,944.463,515.046,973.123,550.388,973.123C550.388,973.123,550.388,973.123,550.388,973.123M652.791,486.711C652.791,486.711,652.791,537.912,652.791,537.912C652.791,559.122,635.6,576.313,614.39,576.313C614.39,576.313,307.182,576.313,307.182,576.313C300.116,576.313,294.382,582.048,294.382,589.113C294.382,589.113,294.382,723.901,294.382,723.901C294.062,743.601,272.532,755.582,255.622,745.444C254.304,744.65,253.05,743.741,251.885,742.717C251.885,742.717,6.375,523.32,6.375,523.32C-2.125,518.392,-2.125,506.103,6.375,501.175C6.375,501.175,251.885,281.906,251.885,281.906C266.682,268.901,290.017,276.786,293.883,296.114C294.19,297.637,294.356,299.173,294.382,300.722C294.382,300.722,294.382,435.51,294.382,435.51C294.382,442.575,300.116,448.31,307.182,448.31C307.182,448.31,614.39,448.31,614.39,448.31C635.6,448.31,652.791,465.501,652.791,486.711C652.791,486.711,652.791,486.711,652.791,486.711" class="icon-logout"/><glyph unicode="&#x006c;" d="M817.726,93.205C817.726,93.205,489.738,93.205,489.738,93.205C477.644,93.205,467.844,83.405,467.844,71.311C467.844,71.311,467.844,21.894,467.844,21.894C467.844,9.8,477.644,0,489.738,0C489.738,0,827.318,0,827.318,0C873.399,0,910.931,37.532,910.931,83.822C910.931,83.822,910.931,940.178,910.931,940.178C910.931,986.468,873.399,1024,827.318,1024C827.318,1024,489.321,1024,489.321,1024C477.436,1024,468.053,1014.408,468.053,1002.732C468.053,1002.732,468.053,952.272,468.053,952.272C468.053,940.387,477.644,931.004,489.321,931.004C489.321,931.004,817.935,931.004,817.935,931.004C817.935,931.004,817.935,93.205,817.935,93.205C817.935,93.205,817.726,93.205,817.726,93.205M702.628,558.602C702.628,558.602,292.277,558.602,292.277,558.602C292.277,558.602,417.593,683.918,417.593,683.918C421.971,688.296,421.971,695.594,417.593,699.973C417.593,699.973,367.759,749.807,367.759,749.807C363.38,754.186,356.082,754.186,351.703,749.807C351.703,749.807,114,512.104,114,512.104C114,512.104,351.703,274.401,351.703,274.401C356.082,270.022,363.38,270.022,367.759,274.401C367.759,274.401,417.593,324.235,417.593,324.235C421.971,328.614,421.971,335.912,417.593,340.291C417.593,340.291,292.277,465.606,292.277,465.606C292.277,465.606,702.628,465.606,702.628,465.606C714.305,465.606,723.896,475.198,723.896,486.874C723.896,486.874,723.896,537.334,723.896,537.334C723.896,549.011,714.305,558.602,702.628,558.602C702.628,558.602,702.628,558.602,702.628,558.602" class="icon-logout_2"/><glyph unicode="&#x006d;" d="M11.634,607.264C20.714,375.33,191.732,203.935,425.935,195.232C657.868,186.152,831.534,391.221,840.236,609.534C849.317,841.467,644.247,1015.133,425.935,1023.835C194.002,1030.645,20.714,825.576,11.634,607.264C9.363,535.376,122.114,535.376,124.384,607.264C140.275,994.701,710.081,994.701,725.594,607.264C732.404,438.516,583.71,312.145,423.665,305.334C254.917,298.524,128.546,447.218,121.736,607.264C119.844,679.151,7.093,681.422,11.634,607.264C11.634,607.264,11.634,607.264,11.634,607.264M646.896,307.605C736.945,217.555,826.994,127.506,917.043,37.457C917.043,64.321,917.043,91.562,917.043,116.156C910.232,109.345,903.422,102.535,896.611,95.724C923.475,95.724,950.716,95.724,975.31,95.724C885.261,185.773,795.212,275.823,705.163,365.872C705.163,339.008,705.163,311.766,705.163,287.173C711.973,293.984,718.783,300.794,725.594,307.605C777.429,359.439,696.46,438.138,646.896,386.303C640.085,379.492,633.275,372.682,626.464,365.872C603.763,343.17,603.763,307.226,626.464,287.173C716.513,197.124,806.562,107.075,896.611,17.026C919.313,-5.675,955.257,-5.675,975.31,17.026C982.12,23.837,988.931,30.647,995.741,37.457C1018.442,60.159,1018.442,96.103,995.741,116.156C905.692,206.205,815.643,296.254,725.594,386.303C673.759,438.138,595.061,357.169,646.896,307.605C646.896,307.605,646.896,307.605,646.896,307.605" class="icon-loop"/><glyph unicode="&#x006e;" d="M1024,740.322C1024,846.356,938.728,931.627,832.695,931.627C832.695,931.627,191.305,931.627,191.305,931.627C85.272,931.627,0,846.356,0,740.322C0,740.322,0,284.305,0,284.305C0,178.272,85.272,93,191.305,93C191.305,93,832.695,93,832.695,93C938.728,93,1024,178.272,1024,284.305C1024,284.305,1024,740.322,1024,740.322C1024,740.322,1024,740.322,1024,740.322M191.305,843.39C191.305,843.39,832.695,843.39,832.695,843.39C876.937,843.39,913.518,816.943,928.348,778.633C928.348,778.633,538.57,475.61,538.57,475.61C522.504,463.746,500.26,463.746,484.194,475.61C484.194,475.61,95.652,778.633,95.652,778.633C110.235,816.943,148.545,843.39,191.305,843.39C191.305,843.39,191.305,843.39,191.305,843.39M832.695,181.238C832.695,181.238,191.305,181.238,191.305,181.238C133.963,181.238,88.238,226.963,88.238,284.305C88.238,284.305,88.238,671.364,88.238,671.364C88.238,671.364,431.054,404.921,431.054,404.921C454.534,385.889,483.947,376.991,511.876,376.991C539.806,376.991,569.218,385.889,592.699,404.921C592.699,404.921,935.515,671.116,935.515,671.116C935.515,671.116,935.515,284.058,935.515,284.058C935.762,226.963,890.037,181.238,832.695,181.238C832.695,181.238,832.695,181.238,832.695,181.238" class="icon-mail"/><glyph unicode="&#x006f;" d="M0,973.1C0,973.1,0,870.7,0,870.7C0,870.7,1024,870.7,1024,870.7C1024,870.7,1024,973.1,1024,973.1C1024,973.1,0,973.1,0,973.1M0,563.5C0,563.5,0,461.1,0,461.1C0,461.1,768,461.1,768,461.1C768,461.1,768,563.5,768,563.5C768,563.5,0,563.5,0,563.5M0,153.9C0,153.9,0,51.5,0,51.5C0,51.5,512,51.5,512,51.5C512,51.5,512,153.9,512,153.9C512,153.9,0,153.9,0,153.9" class="icon-menu-icon"/><glyph unicode="&#x0070;" d="M0,877.1C0,877.1,0,813.1,0,813.1C0,813.1,1024,813.1,1024,813.1C1024,813.1,1024,877.1,1024,877.1C1024,877.1,0,877.1,0,877.1M0,544.3C0,544.3,0,480.3,0,480.3C0,480.3,1024,480.3,1024,480.3C1024,480.3,1024,544.3,1024,544.3C1024,544.3,0,544.3,0,544.3M0,211.5C0,211.5,0,147.5,0,147.5C0,147.5,1024,147.5,1024,147.5C1024,147.5,1024,211.5,1024,211.5C1024,211.5,0,211.5,0,211.5" class="icon-menu-icon_2"/><glyph unicode="&#x0071;" d="M456.434,652.623C432.696,660.234,406.785,654.798,388.483,636.496C370.182,618.195,364.746,592.283,372.356,568.546C372.356,568.546,548.122,41.069,548.122,41.069C555.732,17.331,577.295,2.292,601.032,0.117C618.247,-0.97,635.461,5.553,647.42,17.331C651.769,21.68,656.118,28.204,659.198,33.458C659.198,33.458,767.013,257.786,767.013,257.786C767.013,257.786,990.251,365.6,990.251,365.6C1012.901,376.472,1025.766,399.123,1023.773,423.766C1022.686,448.591,1006.559,469.066,982.822,476.677C982.822,476.677,456.434,652.623,456.434,652.623C456.434,652.623,456.434,652.623,456.434,652.623M966.514,419.598C966.514,418.511,966.514,418.511,965.426,417.424C965.426,417.424,742.188,309.609,742.188,309.609C730.41,304.173,719.538,293.482,714.102,281.523C714.102,281.523,606.287,58.283,606.287,58.283C606.287,57.196,606.287,57.196,604.113,57.196C603.026,57.196,603.026,57.196,603.026,58.283C603.026,58.283,427.26,585.76,427.26,585.76C426.173,589.022,427.26,592.283,429.435,594.458C431.609,596.632,434.871,597.719,438.133,596.632C438.133,596.632,965.607,420.867,965.607,420.867C966.514,420.686,966.514,420.686,966.514,419.598C966.514,419.598,966.514,419.598,966.514,419.598M248.234,776.565C260.012,788.343,260.012,806.826,248.234,817.516C248.234,817.516,158.72,907.211,158.72,907.211C146.942,918.989,128.459,918.989,117.769,907.211C105.991,895.433,105.991,876.95,117.769,866.26C117.769,866.26,207.282,776.746,207.282,776.746C217.973,765.874,236.274,765.874,248.234,776.565C248.234,776.565,248.234,776.565,248.234,776.565M377.611,840.348C384.135,841.435,390.477,844.697,394.825,849.045C401.349,855.569,404.61,864.085,403.523,872.783C403.523,872.783,388.483,998.899,388.483,998.899C386.309,1015.026,372.356,1025.898,356.048,1023.724C339.74,1021.549,329.049,1007.597,331.224,991.288C331.224,991.288,346.263,865.172,346.263,865.172C347.351,849.951,361.484,838.173,377.611,840.348C377.611,840.348,377.611,840.348,377.611,840.348M614.985,969.726C601.032,978.423,583.637,974.074,575.121,959.941C575.121,959.941,509.345,851.039,509.345,851.039C500.647,837.086,504.996,819.691,519.129,811.174C530.908,804.651,545.041,805.738,554.645,815.523C556.819,817.698,557.907,818.785,558.994,820.959C558.994,820.959,624.77,929.861,624.77,929.861C633.286,942.727,628.937,961.028,614.985,969.726C614.985,969.726,614.985,969.726,614.985,969.726M747.624,783.088C747.624,783.088,628.937,737.788,628.937,737.788C613.898,732.352,606.287,715.138,611.723,700.098C617.159,685.058,634.374,677.448,649.413,682.884C649.413,682.884,768.1,728.184,768.1,728.184C772.449,729.271,775.711,732.533,777.885,734.707C785.495,742.318,788.757,754.096,784.408,766.055C779.878,780.914,762.664,788.524,747.624,783.088C747.624,783.088,747.624,783.088,747.624,783.088M152.197,621.275C161.982,620.188,170.498,623.45,175.934,629.973C180.283,634.322,183.545,640.845,184.632,647.187C186.806,663.314,174.847,677.448,159.807,679.622C159.807,679.622,33.691,694.662,33.691,694.662C17.564,696.836,3.431,684.877,1.256,669.837C-0.918,653.71,11.041,639.577,26.081,637.402C26.081,637.402,152.197,621.275,152.197,621.275C152.197,621.275,152.197,621.275,152.197,621.275M205.108,465.986C207.282,467.073,209.456,469.248,210.544,470.335C220.329,480.12,222.322,494.072,214.893,505.85C206.195,519.803,188.981,524.152,175.028,515.635C175.028,515.635,65.945,449.859,65.945,449.859C51.993,441.161,47.644,423.947,56.16,409.995C64.858,396.042,82.072,391.693,96.024,400.21C96.024,400.21,205.108,465.986,205.108,465.986C205.108,465.986,205.108,465.986,205.108,465.986M324.7,413.075C309.661,418.511,292.265,410.901,287.011,395.861C287.011,395.861,241.71,277.174,241.71,277.174C236.274,262.134,243.885,244.739,258.924,239.484C269.796,235.135,281.575,238.397,290.272,246.008C293.534,249.269,295.708,252.531,296.795,255.792C296.795,255.792,342.096,374.479,342.096,374.479C347.351,390.425,339.921,406.733,324.7,413.075C324.7,413.075,324.7,413.075,324.7,413.075" class="icon-one_click"/><glyph unicode="&#x0072;" d="M983.248,163.586C928.794,24.536,801.068,0.057,759.436,0.057C747.113,0.057,556.273,-10.767,282.003,266.5C61.022,489.646,34.211,729.445,31.713,775.073C29.548,819.536,41.372,930.942,185.251,1013.54C203.069,1023.864,238.373,1028.361,247.532,1018.535C251.529,1014.206,372.261,802.55,375.425,795.556C378.589,788.562,380.254,781.734,380.254,774.907C380.254,765.248,373.76,753.092,360.77,738.604C347.781,724.116,333.793,710.794,318.639,698.804C303.485,686.647,289.33,673.991,276.508,660.336C263.519,646.847,257.191,635.69,257.191,627.031C258.023,604.383,275.509,523.617,407.731,399.888C539.953,275.992,603.733,241.188,609.895,238.69C616.056,236.358,621.052,235.026,625.215,235.026C633.375,235.026,643.866,241.854,656.522,255.676C669.178,269.497,711.976,331.778,725.464,345.6C739.12,359.422,750.443,366.249,759.436,366.249C765.764,366.249,772.258,364.584,778.753,361.254C785.414,357.923,984.247,233.861,988.077,229.697C998.236,218.707,990.908,183.403,983.248,163.586" class="icon-phone"/><glyph unicode="&#x0073;" d="M829.599,0C851.936,0,870.955,1.548,885.994,3.539C885.994,3.539,896.609,4.865,896.609,4.865C896.609,4.865,902.802,13.491,902.802,13.491C964.062,99.079,979.543,207.446,981.534,283.303C981.534,283.303,981.755,294.803,981.755,294.803C981.755,294.803,973.351,302.322,973.351,302.322C897.052,369.996,769.444,418.43,668.375,417.324C668.375,417.324,660.413,417.324,660.413,417.324C660.413,417.324,654,412.459,654,412.459C627.682,392.776,582.124,345.006,556.027,312.717C518.209,331.736,472.208,373.756,419.352,438.113C366.495,502.47,333.985,555.547,322.706,596.462C359.418,615.702,415.15,651.309,439.477,673.203C439.477,673.203,445.448,678.511,445.448,678.511C445.448,678.511,446.996,686.252,446.996,686.252C467.564,784.667,444.785,919.794,393.034,1007.593C393.034,1007.593,387.284,1017.545,387.284,1017.545C387.284,1017.545,376.005,1019.315,376.005,1019.315C312.311,1029.93,171.655,1024.844,72.135,979.506C72.135,979.506,62.404,975.083,62.404,975.083C62.404,975.083,59.086,964.91,59.086,964.91C15.076,833.764,49.134,591.154,277.811,302.101C498.968,44.01,711.28,0,829.599,0C829.599,0,829.599,0,829.599,0M102.654,939.477C188.684,975.083,302.581,978.843,356.985,972.872C397.236,897.899,415.592,786.215,400.996,704.386C372.909,681.386,312.533,644.232,285.33,632.51C285.33,632.51,268.522,625.212,268.522,625.212C268.522,625.212,270.955,606.856,270.955,606.856C278.032,554.442,314.302,488.979,381.755,407.151C449.208,325.323,506.267,277.11,556.248,259.86C556.248,259.86,573.72,253.889,573.72,253.889C573.72,253.889,584.335,268.927,584.335,268.927C601.143,293.255,649.134,345.227,677.221,368.448C760.598,366.9,866.532,327.092,932.216,273.129C929.12,207.667,915.187,120.752,868.965,50.866C774.531,41.578,552.71,56.395,315.629,333.727C105.972,598.894,69.702,822.927,102.654,939.477C102.654,939.477,102.654,939.477,102.654,939.477" class="icon-phone_hollow"/><glyph unicode="&#x0074;" d="M325.397,680.483C325.397,680.483,0,355.086,0,355.086C0,355.086,0,233.822,0,233.822C0,105.505,105.005,0.5,233.322,0.5C233.322,0.5,790.669,0.5,790.669,0.5C918.986,0.5,1023.99,105.505,1023.99,233.822C1023.99,233.822,1023.99,345.683,1023.99,345.683C1023.99,345.683,841.995,163.688,841.995,163.688C841.995,163.688,325.397,680.483,325.397,680.483C325.397,680.483,325.397,680.483,325.397,680.483M791.844,1024.49C791.844,1024.49,233.322,1024.49,233.322,1024.49C105.005,1024.49,0,919.486,0,791.169C0,791.169,0,512.397,0,512.397C0,512.397,325.397,837.99,325.397,837.99C325.397,837.99,841.995,321.391,841.995,321.391C841.995,321.391,1023.99,503.386,1023.99,503.386C1023.99,503.386,1023.99,791.364,1023.99,791.364C1025.166,920.661,920.161,1024.49,791.844,1024.49C791.844,1024.49,791.844,1024.49,791.844,1024.49M781.265,678.132C726.412,678.132,680.962,722.406,680.962,778.435C680.962,833.288,725.237,878.738,781.265,878.738C837.294,878.738,881.568,834.463,881.568,778.435C881.568,723.582,836.118,678.132,781.265,678.132C781.265,678.132,781.265,678.132,781.265,678.132" class="icon-scenery"/><glyph unicode="&#x0075;" d="M971.586,619.987C971.586,619.987,899.711,632.18,899.711,632.18C892.225,656.352,882.598,679.669,870.833,701.916C870.833,701.916,913.188,761.169,913.188,761.169C931.156,786.411,928.376,820.85,906.343,842.669C906.343,842.669,842.597,906.415,842.597,906.415C830.618,918.394,814.789,925.025,797.89,925.025C784.627,925.025,772.006,920.961,761.311,913.26C761.311,913.26,701.843,870.906,701.843,870.906C678.741,883.098,654.569,893.152,629.541,900.639C629.541,900.639,617.562,971.658,617.562,971.658C612.428,1002.247,586.117,1024.494,555.1,1024.494C555.1,1024.494,465.043,1024.494,465.043,1024.494C434.026,1024.494,407.715,1002.247,402.581,971.658C402.581,971.658,390.174,898.928,390.174,898.928C366.216,891.441,342.9,881.601,320.653,869.622C320.653,869.622,261.828,911.977,261.828,911.977C251.132,919.677,238.297,923.742,225.035,923.742C208.136,923.742,192.092,917.11,180.327,905.131C180.327,905.131,116.368,841.386,116.368,841.386C94.549,819.567,91.554,785.127,109.523,759.886C109.523,759.886,152.305,699.776,152.305,699.776C140.54,677.316,131.128,653.999,123.855,629.827C123.855,629.827,52.836,617.848,52.836,617.848C22.247,612.714,0,586.403,0,555.386C0,555.386,0,465.33,0,465.33C0,434.312,22.247,408.001,52.836,402.867C52.836,402.867,125.566,390.461,125.566,390.461C133.053,366.502,142.893,343.186,154.872,320.939C154.872,320.939,112.731,262.328,112.731,262.328C94.763,237.086,97.544,202.646,119.576,180.827C119.576,180.827,183.322,117.082,183.322,117.082C195.301,105.103,211.131,98.471,228.03,98.471C241.292,98.471,253.913,102.536,264.608,110.237C264.608,110.237,324.718,153.019,324.718,153.019C346.323,141.682,368.997,132.483,392.314,125.21C392.314,125.21,404.293,53.336,404.293,53.336C409.426,22.747,435.738,0.5,466.755,0.5C466.755,0.5,557.025,0.5,557.025,0.5C588.042,0.5,614.354,22.747,619.487,53.336C619.487,53.336,631.68,125.21,631.68,125.21C655.852,132.697,679.169,142.323,701.416,154.088C701.416,154.088,760.669,111.734,760.669,111.734C771.365,104.033,784.199,99.969,797.462,99.969C797.462,99.969,797.462,99.969,797.462,99.969C814.361,99.969,830.19,106.6,842.169,118.579C842.169,118.579,905.915,182.325,905.915,182.325C927.734,204.144,930.729,238.583,912.76,263.825C912.76,263.825,870.406,323.292,870.406,323.292C882.171,345.753,892.011,369.069,899.284,393.027C899.284,393.027,971.158,405.006,971.158,405.006C1001.747,410.14,1023.994,436.451,1023.994,467.469C1023.994,467.469,1023.994,557.525,1023.994,557.525C1024.422,588.542,1002.175,614.854,971.586,619.987C971.586,619.987,971.586,619.987,971.586,619.987M966.666,467.469C966.666,464.688,964.74,462.335,961.96,461.907C961.96,461.907,872.117,446.933,872.117,446.933C860.78,445.008,851.795,436.665,849.014,425.756C840.886,394.311,828.479,364.149,811.794,336.127C806.018,326.287,806.446,314.094,813.077,304.682C813.077,304.682,865.913,230.241,865.913,230.241C867.411,228.102,867.197,224.893,865.272,222.968C865.272,222.968,801.526,159.222,801.526,159.222C800.029,157.725,798.531,157.511,797.462,157.511C796.178,157.511,795.109,157.939,794.253,158.581C794.253,158.581,720.026,211.417,720.026,211.417C710.828,218.048,698.421,218.476,688.581,212.7C660.558,196.015,630.397,183.608,598.952,175.48C587.829,172.699,579.486,163.5,577.775,152.377C577.775,152.377,562.587,62.534,562.587,62.534C562.159,59.753,559.806,57.828,557.025,57.828C557.025,57.828,466.969,57.828,466.969,57.828C464.188,57.828,461.835,59.753,461.407,62.534C461.407,62.534,446.433,152.377,446.433,152.377C444.508,163.714,436.165,172.699,425.256,175.48C394.667,183.394,365.147,195.587,337.552,211.417C333.06,213.984,327.926,215.267,323.006,215.267C317.231,215.267,311.241,213.556,306.321,209.919C306.321,209.919,231.452,156.655,231.452,156.655C230.383,156.014,229.313,155.586,228.243,155.586C227.388,155.586,225.677,155.8,224.179,157.297C224.179,157.297,160.434,221.043,160.434,221.043C158.508,222.968,158.294,225.963,159.792,228.316C159.792,228.316,212.414,302.115,212.414,302.115C219.045,311.527,219.473,323.934,213.698,333.774C197.012,361.582,184.178,391.744,176.049,423.189C173.054,434.098,164.07,442.441,152.947,444.366C152.947,444.366,62.462,459.768,62.462,459.768C59.681,460.196,57.756,462.549,57.756,465.33C57.756,465.33,57.756,555.386,57.756,555.386C57.756,558.167,59.681,560.52,62.462,560.948C62.462,560.948,151.663,575.922,151.663,575.922C163,577.847,172.199,586.189,174.98,597.313C182.894,628.758,195.087,659.133,211.558,687.156C217.334,696.996,216.692,709.189,210.061,718.387C210.061,718.387,156.797,793.256,156.797,793.256C155.3,795.395,155.514,798.603,157.439,800.529C157.439,800.529,221.184,864.274,221.184,864.274C222.682,865.772,224.179,865.986,225.249,865.986C226.532,865.986,227.602,865.558,228.457,864.916C228.457,864.916,302.257,812.294,302.257,812.294C311.669,805.663,324.076,805.235,333.916,811.01C361.724,827.695,391.886,840.53,423.331,848.659C434.24,851.654,442.583,860.638,444.508,871.761C444.508,871.761,459.91,962.246,459.91,962.246C460.337,965.027,462.69,966.952,465.471,966.952C465.471,966.952,555.528,966.952,555.528,966.952C558.309,966.952,560.662,965.027,561.09,962.246C561.09,962.246,576.063,873.045,576.063,873.045C577.989,861.707,586.331,852.509,597.455,849.728C629.755,841.6,660.558,828.979,689.223,812.08C699.062,806.304,711.255,806.732,720.668,813.363C720.668,813.363,794.467,866.413,794.467,866.413C795.537,867.055,796.606,867.483,797.676,867.483C798.531,867.483,800.243,867.269,801.74,865.772C801.74,865.772,865.486,802.026,865.486,802.026C867.411,800.101,867.625,797.106,866.127,794.753C866.127,794.753,813.291,720.526,813.291,720.526C806.66,711.328,806.232,698.921,812.008,689.081C828.693,661.058,841.1,630.897,849.228,599.452C852.009,588.329,861.207,579.986,872.331,578.275C872.331,578.275,962.174,563.087,962.174,563.087C964.954,562.659,966.88,560.306,966.88,557.525C966.88,557.525,966.88,467.469,966.88,467.469C966.88,467.469,966.666,467.469,966.666,467.469C966.666,467.469,966.666,467.469,966.666,467.469M512.104,733.574C390.174,733.574,291.133,634.533,291.133,512.604C291.133,390.674,390.174,291.633,512.104,291.633C634.033,291.633,733.074,390.674,733.074,512.604C733.074,634.533,634.033,733.574,512.104,733.574C512.104,733.574,512.104,733.574,512.104,733.574M512.104,349.39C422.047,349.39,348.89,422.547,348.89,512.604C348.89,602.661,422.047,675.818,512.104,675.818C602.161,675.818,675.318,602.661,675.318,512.604C675.318,422.547,602.161,349.39,512.104,349.39C512.104,349.39,512.104,349.39,512.104,349.39" class="icon-settings"/><glyph unicode="&#x0076;" d="M843.468,466.236C823.811,402.659,764.841,356.588,694.813,356.588C624.786,356.588,565.815,402.659,546.158,466.236C546.158,466.236,146.571,466.236,146.571,466.236C121.385,466.236,100.807,486.815,100.807,512C100.807,537.185,121.385,557.764,146.571,557.764C146.571,557.764,546.465,557.764,546.465,557.764C566.122,621.341,625.093,667.412,695.12,667.412C765.148,667.412,824.118,621.341,843.775,557.764C843.775,557.764,878.175,557.764,878.175,557.764C903.36,557.764,923.939,537.185,923.939,512C923.939,486.815,903.36,466.236,878.175,466.236C878.175,466.236,843.468,466.236,843.468,466.236C843.468,466.236,843.468,466.236,843.468,466.236M695.12,575.885C659.799,575.885,631.235,547.321,631.235,512C631.235,476.679,659.799,448.115,695.12,448.115C730.441,448.115,759.005,476.679,759.005,512C759.005,547.014,730.441,575.885,695.12,575.885C695.12,575.885,695.12,575.885,695.12,575.885M441.424,822.824C441.424,822.824,441.424,822.824,441.424,822.824C421.767,759.247,362.796,713.176,292.769,713.176C222.741,713.176,163.771,759.554,144.114,822.824C119.85,824.053,100.807,844.017,100.807,868.588C100.807,893.159,120.157,913.123,144.114,914.352C163.771,977.929,222.741,1024,292.769,1024C362.796,1024,421.767,977.929,441.424,914.352C441.424,914.352,877.868,914.352,877.868,914.352C903.053,914.352,923.631,893.773,923.631,868.588C923.631,843.403,903.053,822.824,877.868,822.824C877.868,822.824,441.424,822.824,441.424,822.824C441.424,822.824,441.424,822.824,441.424,822.824M292.769,932.473C257.448,932.473,228.884,903.909,228.884,868.588C228.884,833.267,257.448,804.703,292.769,804.703C328.09,804.703,356.654,833.267,356.654,868.588C356.654,903.602,328.09,932.473,292.769,932.473C292.769,932.473,292.769,932.473,292.769,932.473M569.193,109.648C569.193,109.648,569.193,109.648,569.193,109.648C549.537,46.071,490.566,0,420.538,0C350.511,0,291.54,46.071,271.883,109.648C271.883,109.648,146.264,109.648,146.264,109.648C121.078,109.648,100.5,130.227,100.5,155.412C100.5,180.597,121.078,201.176,146.264,201.176C146.264,201.176,271.883,201.176,271.883,201.176C291.54,264.753,350.511,310.824,420.538,310.824C490.566,310.824,549.537,264.753,569.193,201.176C569.193,201.176,877.561,201.176,877.561,201.176C902.746,201.176,923.324,180.597,923.324,155.412C923.324,130.227,902.746,109.648,877.561,109.648C877.561,109.648,569.193,109.648,569.193,109.648C569.193,109.648,569.193,109.648,569.193,109.648M420.846,219.297C385.525,219.297,356.961,190.733,356.961,155.412C356.961,120.091,385.525,91.527,420.846,91.527C456.166,91.527,484.73,120.091,484.73,155.412C484.73,190.733,456.166,219.297,420.846,219.297C420.846,219.297,420.846,219.297,420.846,219.297" class="icon-settings_2"/><glyph unicode="&#x0077;" d="M962.655,450.126C962.655,450.126,959.568,450.126,959.568,450.126C925.711,451.731,899.628,480.588,901.434,514.434C906.754,618.474,867.891,719.926,794.426,793.787C650.891,937.153,418.353,937.153,274.818,793.787C274.818,793.787,258.355,777.325,258.355,777.325C258.355,777.325,327.293,777.325,327.293,777.325C374.423,777.325,403.876,726.305,380.314,685.493C369.376,666.55,349.163,654.882,327.293,654.882C327.293,654.882,110.704,654.882,110.704,654.882C76.848,654.769,49.37,682.247,49.483,716.104C49.483,716.104,49.483,932.692,49.483,932.692C49.483,979.822,100.503,1009.275,141.315,985.713C160.258,974.775,171.926,954.562,171.926,932.692C171.926,932.692,171.926,863.754,171.926,863.754C171.926,863.754,188.388,880.217,188.388,880.217C379.542,1071.597,689.702,1071.597,880.855,880.217C978.912,781.991,1030.863,646.877,1023.876,508.26C1022.281,475.638,995.318,450.034,962.655,450.126C962.655,450.126,962.655,450.126,962.655,450.126M975.517,92.574C975.517,45.444,924.497,15.991,883.685,39.554C864.742,50.491,853.074,70.705,853.074,92.574C853.074,92.574,853.074,160.998,853.074,160.998C853.074,160.998,836.612,144.535,836.612,144.535C645.458,-46.845,335.298,-46.845,144.145,144.535C46.088,242.762,-5.863,377.875,1.124,516.492C4.849,563.55,58.121,588.933,97.015,562.176C114.033,550.467,124.014,530.974,123.566,510.318C118.246,406.278,157.109,304.826,230.574,230.965C374.109,87.6,606.647,87.6,750.182,230.965C750.182,230.965,766.645,247.428,766.645,247.428C766.645,247.428,697.707,247.428,697.707,247.428C650.577,247.428,621.124,298.447,644.686,339.259C655.624,358.202,675.837,369.87,697.707,369.87C697.707,369.87,914.296,369.87,914.296,369.87C948.152,369.983,975.63,342.506,975.517,308.649C975.517,308.649,975.517,92.574,975.517,92.574C975.517,92.574,975.517,92.574,975.517,92.574" class="icon-show-more"/><glyph unicode="&#x0078;" d="M253.165,656.565C253.165,656.565,211,698.729,211,698.729C211,698.729,512.176,1024,512.176,1024C512.176,1024,813.353,698.729,813.353,698.729C813.353,698.729,771.188,656.565,771.188,656.565C771.188,656.565,512.176,939.671,512.176,939.671C512.176,939.671,253.165,656.565,253.165,656.565M771.188,367.435C771.188,367.435,813.353,325.271,813.353,325.271C813.353,325.271,512.176,0,512.176,0C512.176,0,211,325.271,211,325.271C211,325.271,253.165,367.435,253.165,367.435C253.165,367.435,512.176,84.329,512.176,84.329C512.176,84.329,771.188,367.435,771.188,367.435M367.612,530.071C367.612,530.071,367.612,487.906,367.612,487.906C367.612,487.906,650.718,487.906,650.718,487.906C650.718,487.906,650.718,530.071,650.718,530.071C650.718,530.071,367.612,530.071,367.612,530.071" class="icon-size_height"/><glyph unicode="&#x0079;" d="M367.435,253.165C367.435,253.165,325.271,211,325.271,211C325.271,211,0,512.176,0,512.176C0,512.176,325.271,813.353,325.271,813.353C325.271,813.353,367.435,771.188,367.435,771.188C367.435,771.188,84.329,512.176,84.329,512.176C84.329,512.176,367.435,253.165,367.435,253.165M656.565,771.188C656.565,771.188,698.729,813.353,698.729,813.353C698.729,813.353,1024,512.176,1024,512.176C1024,512.176,698.729,211,698.729,211C698.729,211,656.565,253.165,656.565,253.165C656.565,253.165,939.671,512.176,939.671,512.176C939.671,512.176,656.565,771.188,656.565,771.188M493.929,650.718C493.929,650.718,493.929,367.612,493.929,367.612C493.929,367.612,536.094,367.612,536.094,367.612C536.094,367.612,536.094,650.718,536.094,650.718C536.094,650.718,493.929,650.718,493.929,650.718" class="icon-size_width"/><glyph unicode="&#x007a;" d="M768.739,511.904C768.739,511.904,768.739,625.64,768.739,625.64C768.739,704.203,705.085,767.857,626.522,767.857C626.522,767.857,512.787,767.857,512.787,767.857C512.787,767.857,512.787,995.518,512.787,995.518C512.787,1011.384,500.362,1024,484.305,1024C484.305,1024,28.982,1024,28.982,1024C13.116,1024,0.5,1011.575,0.5,995.518C0.5,995.518,0.5,540.386,0.5,540.386C0.5,524.52,12.925,511.904,28.982,511.904C28.982,511.904,256.643,511.904,256.643,511.904C256.643,511.904,256.643,398.169,256.643,398.169C256.643,319.606,320.297,255.952,398.86,255.952C398.86,255.952,512.596,255.952,512.596,255.952C512.596,114.882,627.478,0,768.548,0C909.618,0,1024.5,114.882,1024.5,255.952C1024.5,397.022,909.809,511.904,768.739,511.904C768.739,511.904,768.739,511.904,768.739,511.904M256.643,625.64C256.643,625.64,256.643,568.676,256.643,568.676C256.643,568.676,57.463,568.676,57.463,568.676C57.463,568.676,57.463,967.037,57.463,967.037C57.463,967.037,455.632,967.037,455.632,967.037C455.632,967.037,455.632,767.857,455.632,767.857C455.632,767.857,398.669,767.857,398.669,767.857C320.297,767.857,256.643,704.203,256.643,625.64C256.643,625.64,256.643,625.64,256.643,625.64M398.86,312.724C352.219,312.724,313.607,351.337,313.607,397.978C313.607,397.978,313.607,625.64,313.607,625.64C313.607,672.281,352.219,710.893,398.86,710.893C398.86,710.893,626.522,710.893,626.522,710.893C673.163,710.893,711.776,672.281,711.776,625.64C711.776,625.64,711.776,505.023,711.776,505.023C616.2,483.423,541.077,408.3,519.477,312.724C519.477,312.724,398.86,312.724,398.86,312.724C398.86,312.724,398.86,312.724,398.86,312.724M768.739,56.772C659.591,56.772,569.559,146.613,569.559,255.952C569.559,365.291,659.4,455.132,768.739,455.132C878.078,455.132,967.919,365.291,967.919,255.952C967.919,146.613,877.887,56.772,768.739,56.772C768.739,56.772,768.739,56.772,768.739,56.772" class="icon-squere_evolution"/><glyph unicode="&#x0030;" d="M952.299,812.922C971.431,818.164,989.95,824.836,1007.72,832.666C1011.192,834.64,1015.617,834.64,1019.158,832.258C1024.196,828.921,1025.489,822.181,1022.153,817.143C1008.06,796.037,992.06,776.156,974.358,757.842C958.018,740.957,940.316,725.366,921.321,711.34C921.321,711.34,921.798,691.324,921.798,691.324C921.866,690.915,921.866,690.507,921.866,690.098C921.866,540.722,860.454,379.023,743.282,261.85C643.402,162.039,503.218,94.5,326.199,94.5C268.192,94.5,212.023,102.874,158.917,118.397C104.178,134.397,52.706,158.09,5.66,188.115C1.916,190.158,-0.467,194.379,0.077,198.873C0.758,204.864,6.137,209.153,12.128,208.473C12.128,208.473,12.128,208.473,12.128,208.473C20.094,207.587,27.992,206.907,35.889,206.498C43.515,206.09,51.481,205.817,59.855,205.817C105.948,205.817,150.202,213.511,191.461,227.672C225.027,239.178,256.549,255.042,285.417,274.446C250.013,280.029,217.537,294.122,190.031,314.547C154.424,341.032,127.258,378.138,113.165,421.235C112.348,423.141,112.075,425.252,112.484,427.43C113.573,433.354,119.292,437.235,125.216,436.145C125.216,436.145,125.216,436.145,125.216,436.145C131.411,434.988,137.471,434.103,143.462,433.558C149.317,433.013,155.513,432.741,162.049,432.741C164.228,432.741,166.338,432.741,168.449,432.809C137.539,446.698,110.441,467.668,89.267,493.608C58.766,530.986,40.451,578.645,40.451,630.593C40.451,630.593,40.451,633.044,40.451,633.044C40.451,634.814,40.86,636.652,41.813,638.354C44.74,643.597,51.345,645.571,56.587,642.644C56.587,642.644,56.587,642.644,56.587,642.644C70.136,635.155,84.569,629.163,99.616,625.01C102.339,624.261,105.063,623.58,107.786,622.967C91.718,638.491,78.101,656.533,67.412,676.481C51.14,706.915,41.881,741.638,41.881,778.403C41.881,797.943,44.468,816.871,49.37,834.981C54.272,853.159,61.557,870.453,70.817,886.452C71.497,887.882,72.519,889.176,73.812,890.265C78.442,894.078,85.318,893.397,89.131,888.699C89.131,888.699,89.131,888.699,89.131,888.699C139.786,826.607,203.036,775.407,275.068,738.914C340.837,705.621,413.891,684.583,491.303,678.796C490.758,682.132,490.282,685.469,489.941,688.805C488.988,697.111,488.511,705.417,488.511,713.86C488.511,773.569,512.749,827.696,551.898,866.844C591.046,905.992,645.173,930.23,704.882,930.23C735.248,930.23,764.388,923.898,790.804,912.46C816.336,901.431,839.28,885.703,858.411,866.368C879.041,870.725,899.058,876.58,918.325,883.933C939.704,892.035,960.129,901.975,979.465,913.414C982.12,915.252,985.592,915.796,988.928,914.775C994.647,912.937,997.779,906.809,995.941,901.022C995.941,901.022,995.941,901.022,995.941,901.022C987.771,875.831,975.175,852.615,959.176,832.394C952.572,824.087,945.355,816.258,937.593,808.973C942.495,810.266,947.397,811.56,952.299,812.922C952.299,812.922,952.299,812.922,952.299,812.922C952.299,812.922,952.299,812.922,952.299,812.922" class="icon-twitter"/><glyph unicode="&#x0031;" d="M258.653,585.549C275.697,602.593,275.697,627.805,258.653,644.849C241.608,661.894,216.397,661.894,199.352,644.849C199.352,644.849,93.534,541.162,93.534,541.162C34.234,481.861,0.5,401.61,0.5,317.098C0.5,232.586,34.234,152.335,93.534,93.034C154.966,31.603,237.347,0,317.598,0C397.849,0,480.231,31.603,541.662,93.034C541.662,93.034,645.349,196.722,645.349,196.722C662.394,213.766,662.394,238.978,645.349,256.022C628.305,273.067,603.093,273.067,586.049,256.022C586.049,256.022,482.361,152.335,482.361,152.335C391.458,61.431,243.384,61.431,152.48,152.335C108.093,196.722,85.012,253.892,85.012,317.098C85.012,380.305,108.093,437.475,152.48,481.861C152.48,481.861,258.653,585.549,258.653,585.549C258.653,585.549,258.653,585.549,258.653,585.549M766.081,437.475C749.036,420.43,749.036,395.219,766.081,378.174C774.603,369.652,785.256,365.391,795.554,365.391C806.206,365.391,816.859,369.652,825.026,378.174C825.026,378.174,930.844,483.992,930.844,483.992C990.145,543.293,1023.879,623.544,1023.879,708.056C1023.879,792.568,990.145,872.819,930.844,932.12C808.337,1054.627,605.224,1054.627,482.717,932.12C482.717,932.12,376.899,828.432,376.899,828.432C359.854,811.388,359.854,786.176,376.899,769.132C393.943,752.087,419.155,752.087,436.199,769.132C436.199,769.132,542.017,872.819,542.017,872.819C632.921,963.723,780.995,963.723,871.899,872.819C916.285,828.432,939.366,771.262,939.366,708.056C939.366,644.849,914.155,585.549,871.899,541.162C871.899,541.162,766.081,437.475,766.081,437.475C766.081,437.475,766.081,437.475,766.081,437.475" class="icon-unlinked"/><glyph unicode="&#x0032;" d="M512,461.233C301.79,461.233,170.411,688.783,275.524,870.833C380.621,1052.881,643.379,1052.881,748.476,870.833C772.454,829.327,785.067,782.24,785.067,734.3C785.067,583.482,662.818,461.233,512,461.233C512,461.233,512,461.233,512,461.233M0,17.5C0,17.5,0,130.311,0,130.311C-0.17,286.027,84.992,429.301,221.867,503.558C370.859,318.163,653.141,318.163,802.133,503.558C939.008,429.301,1024.17,286.027,1024,130.311C1024,130.311,1024,17.5,1024,17.5C1024,17.5,0,17.5,0,17.5" class="icon-user"/><glyph unicode="&#x0033;" d="M966.173,172.918C966.173,172.918,964.822,178.322,964.822,178.322C932.625,352.591,781.097,479.803,604.351,479.803C604.351,479.803,420.625,479.803,420.625,479.803C239.601,479.803,86.947,348.538,57.452,170.216C57.452,170.216,57.452,170.216,57.452,170.216C42.817,80.38,112.389,0,202.226,0C202.226,0,821.399,0,821.399,0C913.937,0,983.51,83.082,966.173,172.918C966.173,172.918,966.173,172.918,966.173,172.918M862.827,112.577C857.424,105.822,844.14,93.889,822.525,93.889C822.525,93.889,203.352,93.889,203.352,93.889C181.962,93.889,168.453,106.047,163.049,112.577C157.645,119.106,148.414,133.967,150.891,155.356C172.28,289.323,284.857,385.914,420.4,385.914C420.4,385.914,604.126,385.914,604.126,385.914C735.39,385.914,849.318,292.025,873.635,162.111C873.635,162.111,874.986,156.707,874.986,156.707C877.688,135.318,868.231,120.682,862.827,112.577C862.827,112.577,862.827,112.577,862.827,112.577M318.856,596.433C372.442,542.846,442.24,516.053,511.812,516.053C578.908,516.053,647.13,541.495,699.366,591.029C699.366,591.029,702.067,593.731,702.067,593.731C794.606,682.216,803.837,825.639,722.106,924.707C722.106,924.707,722.106,924.707,722.106,924.707C667.169,990.452,589.491,1024,511.812,1024C511.812,1024,511.812,930.111,511.812,930.111C565.399,930.111,614.933,906.019,649.832,864.366C649.832,864.366,649.832,864.366,649.832,864.366C699.366,804.025,693.962,715.539,636.323,661.953C636.323,661.953,633.621,659.251,633.621,659.251C600.073,627.054,557.294,609.717,510.236,609.717C462.053,609.717,417.698,628.405,384.15,661.953C384.15,661.953,382.799,664.654,382.799,664.654C329.213,718.241,323.809,802.674,370.641,861.664C404.189,905.794,456.425,930.111,511.362,930.111C511.362,930.111,511.362,1024,511.362,1024C511.362,1024,511.362,1024,511.362,1024C430.982,1024,350.602,989.101,297.016,919.529C297.016,919.529,297.016,919.529,297.016,919.529C222.039,822.938,229.92,684.918,317.054,597.784C317.054,597.784,318.856,596.433,318.856,596.433C318.856,596.433,318.856,596.433,318.856,596.433" class="icon-user_2"/><glyph unicode="&#x0034;" d="M0,1024C0,1024,0,887.467,0,887.467C0,887.467,136.533,887.467,136.533,887.467C136.533,887.467,136.533,1024,136.533,1024C136.533,1024,0,1024,0,1024M0,136.533C0,136.533,0,0,0,0C0,0,136.533,0,136.533,0C136.533,0,136.533,136.533,136.533,136.533C136.533,136.533,0,136.533,0,136.533M0,580.267C0,580.267,0,443.733,0,443.733C0,443.733,136.533,443.733,136.533,443.733C136.533,443.733,136.533,580.267,136.533,580.267C136.533,580.267,0,580.267,0,580.267M273.067,1024C273.067,1024,273.067,887.467,273.067,887.467C273.067,887.467,1024,887.467,1024,887.467C1024,887.467,1024,1024,1024,1024C1024,1024,273.067,1024,273.067,1024M273.067,580.267C273.067,580.267,273.067,443.733,273.067,443.733C273.067,443.733,1024,443.733,1024,443.733C1024,443.733,1024,580.267,1024,580.267C1024,580.267,273.067,580.267,273.067,580.267M273.067,136.533C273.067,136.533,273.067,0,273.067,0C273.067,0,1024,0,1024,0C1024,0,1024,136.533,1024,136.533C1024,136.533,273.067,136.533,273.067,136.533" class="icon-view_list"/><glyph unicode="&#x0035;" d="M0,1024C0,1024,0,877.714,0,877.714C0,877.714,1024,877.714,1024,877.714C1024,877.714,1024,1024,1024,1024C1024,1024,0,1024,0,1024M0,146.286C0,146.286,0,0,0,0C0,0,1024,0,1024,0C1024,0,1024,146.286,1024,146.286C1024,146.286,0,146.286,0,146.286M0,585.143C0,585.143,0,438.857,0,438.857C0,438.857,1024,438.857,1024,438.857C1024,438.857,1024,585.143,1024,585.143C1024,585.143,0,585.143,0,585.143" class="icon-view_text"/><glyph unicode="&#x0036;" d="M0,1024C0,1024,0,877.714,0,877.714C0,877.714,0,731.429,0,731.429C0,731.429,0,585.143,0,585.143C0,585.143,0,585.143,0,585.143C0,585.143,438.857,585.143,438.857,585.143C438.857,585.143,438.857,585.143,438.857,585.143C438.857,585.143,438.857,731.429,438.857,731.429C438.857,731.429,438.857,877.714,438.857,877.714C438.857,877.714,438.857,1024,438.857,1024C438.857,1024,438.857,1024,438.857,1024C438.857,1024,0,1024,0,1024C0,1024,0,1024,0,1024C0,1024,0,1024,0,1024M292.571,731.429C292.571,731.429,146.286,731.429,146.286,731.429C146.286,731.429,146.286,877.714,146.286,877.714C146.286,877.714,292.571,877.714,292.571,877.714C292.571,877.714,292.571,731.429,292.571,731.429C292.571,731.429,292.571,731.429,292.571,731.429M585.143,1024C585.143,1024,585.143,1024,585.143,1024C585.143,1024,585.143,877.714,585.143,877.714C585.143,877.714,585.143,731.429,585.143,731.429C585.143,731.429,585.143,585.143,585.143,585.143C585.143,585.143,585.143,585.143,585.143,585.143C585.143,585.143,1024,585.143,1024,585.143C1024,585.143,1024,585.143,1024,585.143C1024,585.143,1024,731.429,1024,731.429C1024,731.429,1024,877.714,1024,877.714C1024,877.714,1024,1024,1024,1024C1024,1024,1024,1024,1024,1024C1024,1024,585.143,1024,585.143,1024C585.143,1024,585.143,1024,585.143,1024M877.714,731.429C877.714,731.429,731.429,731.429,731.429,731.429C731.429,731.429,731.429,877.714,731.429,877.714C731.429,877.714,877.714,877.714,877.714,877.714C877.714,877.714,877.714,731.429,877.714,731.429C877.714,731.429,877.714,731.429,877.714,731.429M0,438.857C0,438.857,0,292.571,0,292.571C0,292.571,0,146.286,0,146.286C0,146.286,0,0,0,0C0,0,0,0,0,0C0,0,438.857,0,438.857,0C438.857,0,438.857,0,438.857,0C438.857,0,438.857,146.286,438.857,146.286C438.857,146.286,438.857,292.571,438.857,292.571C438.857,292.571,438.857,438.857,438.857,438.857C438.857,438.857,438.857,438.857,438.857,438.857C438.857,438.857,0,438.857,0,438.857C0,438.857,0,438.857,0,438.857C0,438.857,0,438.857,0,438.857M292.571,138.971C292.571,138.971,146.286,138.971,146.286,138.971C146.286,138.971,146.286,285.257,146.286,285.257C146.286,285.257,292.571,285.257,292.571,285.257C292.571,285.257,292.571,138.971,292.571,138.971C292.571,138.971,292.571,138.971,292.571,138.971M585.143,438.857C585.143,438.857,585.143,292.571,585.143,292.571C585.143,292.571,585.143,146.286,585.143,146.286C585.143,146.286,585.143,0,585.143,0C585.143,0,585.143,0,585.143,0C585.143,0,1024,0,1024,0C1024,0,1024,0,1024,0C1024,0,1024,146.286,1024,146.286C1024,146.286,1024,292.571,1024,292.571C1024,292.571,1024,438.857,1024,438.857C1024,438.857,1024,438.857,1024,438.857C1024,438.857,585.143,438.857,585.143,438.857C585.143,438.857,585.143,438.857,585.143,438.857C585.143,438.857,585.143,438.857,585.143,438.857M877.714,138.971C877.714,138.971,731.429,138.971,731.429,138.971C731.429,138.971,731.429,285.257,731.429,285.257C731.429,285.257,877.714,285.257,877.714,285.257C877.714,285.257,877.714,138.971,877.714,138.971C877.714,138.971,877.714,138.971,877.714,138.971" class="icon-view_tile"/><glyph unicode="&#x0037;" d="M1019.069,276.607C1017.829,279.279,1016.673,281.496,1015.6,283.272C997.833,315.269,963.882,354.544,913.767,401.108C913.767,401.108,912.708,402.174,912.708,402.174C912.708,402.174,912.178,402.697,912.178,402.697C912.178,402.697,911.642,403.233,911.642,403.233C911.642,403.233,911.104,403.233,911.104,403.233C888.359,424.915,873.956,439.494,867.925,446.958C856.888,461.176,854.416,475.568,860.448,490.15C864.709,501.168,880.716,524.436,908.432,559.985C923.011,578.825,934.557,593.925,943.083,605.301C1004.578,687.055,1031.239,739.297,1023.06,762.048C1023.06,762.048,1019.883,767.364,1019.883,767.364C1017.749,770.565,1012.24,773.493,1003.365,776.163C994.468,778.828,983.098,779.269,969.232,777.493C969.232,777.493,815.688,776.432,815.688,776.432C813.201,777.314,809.649,777.231,805.022,776.163C800.4,775.095,798.088,774.559,798.088,774.559C798.088,774.559,795.416,773.224,795.416,773.224C795.416,773.224,793.294,771.62,793.294,771.62C791.517,770.559,789.562,768.694,787.427,766.027C785.304,763.37,783.528,760.251,782.109,756.698C765.392,713.69,746.386,673.703,725.054,636.74C711.902,614.7,699.824,595.598,688.793,579.425C677.778,563.257,668.536,551.345,661.078,543.709C653.608,536.066,646.867,529.942,640.813,525.317C634.768,520.69,630.154,518.734,626.959,519.45C623.756,520.165,620.74,520.874,617.885,521.584C612.912,524.785,608.912,529.138,605.896,534.646C602.867,540.155,600.828,547.089,599.762,555.442C598.701,563.8,598.074,570.99,597.895,577.034C597.728,583.072,597.805,591.611,598.165,602.629C598.535,613.652,598.701,621.11,598.701,625.021C598.701,638.529,598.965,653.19,599.493,669.007C600.031,684.824,600.466,697.356,600.83,706.588C601.192,715.83,601.36,725.607,601.36,735.915C601.36,746.223,600.733,754.307,599.493,760.175C598.268,766.035,596.388,771.723,593.91,777.237C591.417,782.746,587.768,787.007,582.98,790.032C578.182,793.054,572.218,795.452,565.12,797.233C546.28,801.496,522.29,803.803,493.138,804.161C427.03,804.871,384.553,800.602,365.715,791.36C358.251,787.455,351.496,782.12,345.457,775.372C339.058,767.549,338.165,763.28,342.785,762.578C364.114,759.383,379.214,751.74,388.101,739.656C388.101,739.656,391.303,733.253,391.303,733.253C393.795,728.633,396.282,720.453,398.771,708.726C401.257,696.999,402.861,684.026,403.567,669.816C405.341,643.864,405.341,621.65,403.567,603.17C401.787,584.683,400.106,570.291,398.502,559.983C396.898,549.675,394.5,541.322,391.303,534.927C388.101,528.529,385.97,524.619,384.902,523.199C383.836,521.78,382.947,520.886,382.241,520.535C377.621,518.764,372.816,517.862,367.843,517.862C362.863,517.862,356.824,520.353,349.717,525.332C342.611,530.31,335.237,537.149,327.594,545.858C319.951,554.57,311.331,566.743,301.73,582.381C292.138,598.018,282.184,616.5,271.876,637.825C271.876,637.825,263.348,653.291,263.348,653.291C258.017,663.24,250.734,677.728,241.492,696.74C232.245,715.759,224.071,734.156,216.966,751.928C214.126,759.392,209.859,765.075,204.172,768.985C204.172,768.985,201.504,770.589,201.504,770.589C199.73,772.008,196.882,773.515,192.976,775.121C189.063,776.725,184.981,777.876,180.712,778.583C180.712,778.583,34.628,777.523,34.628,777.523C19.7,777.523,9.572,774.141,4.239,767.387C4.239,767.387,2.104,764.191,2.104,764.191C1.038,762.412,0.5,759.57,0.5,755.658C0.5,751.747,1.566,746.948,3.701,741.266C25.026,691.145,48.217,642.807,73.274,596.246C98.331,549.685,120.104,512.178,138.582,483.76C157.064,455.322,175.902,428.482,195.097,403.253C214.292,378.015,226.997,361.842,233.214,354.737C239.438,347.618,244.327,342.296,247.881,338.742C247.881,338.742,261.212,325.949,261.212,325.949C269.742,317.417,282.268,307.198,298.797,295.294C315.329,283.382,333.631,271.655,353.713,260.094C373.799,248.551,397.165,239.132,423.826,231.847C450.483,224.555,476.428,221.629,501.666,223.041C501.666,223.041,562.98,223.041,562.98,223.041C575.415,224.115,584.836,228.025,591.239,234.774C591.239,234.774,593.361,237.446,593.361,237.446C594.787,239.567,596.122,242.863,597.355,247.298C598.602,251.741,599.222,256.635,599.222,261.959C598.858,277.24,600.022,291.012,602.681,303.273C605.338,315.531,608.367,324.772,611.754,330.996C615.14,337.215,618.961,342.462,623.213,346.716C627.474,350.979,630.51,353.562,632.292,354.451C634.062,355.345,635.476,355.952,636.542,356.316C645.072,359.159,655.111,356.406,666.674,348.046C678.228,339.693,689.064,329.379,699.2,317.122C709.331,304.853,721.503,291.088,735.717,275.808C749.941,260.521,762.378,249.158,773.037,241.683C773.037,241.683,783.696,235.285,783.696,235.285C790.815,231.016,800.056,227.106,811.432,223.552C822.788,220.001,832.737,219.112,841.281,220.888C841.281,220.888,977.763,223.017,977.763,223.017C991.262,223.017,1001.766,225.252,1009.217,229.687C1016.683,234.129,1021.118,239.024,1022.548,244.348C1023.975,249.677,1024.051,255.724,1022.819,262.484C1021.555,269.227,1020.309,273.942,1019.069,276.607C1019.069,276.607,1019.069,276.607,1019.069,276.607" class="icon-vk"/><glyph unicode="&#x0038;" d="M836.267,1024C836.267,1024,187.733,1024,187.733,1024C85.333,1024,0,938.667,0,836.267C0,836.267,0,196.267,0,196.267C0,85.333,85.333,0,187.733,0C187.733,0,827.733,0,827.733,0C938.667,0,1024,85.333,1024,187.733C1024,187.733,1024,836.267,1024,836.267C1024,938.667,938.667,1024,836.267,1024C836.267,1024,836.267,1024,836.267,1024M930.133,247.467C930.133,170.667,870.4,102.4,802.133,102.4C802.133,102.4,221.867,102.4,221.867,102.4C153.6,102.4,93.867,162.133,93.867,247.467C93.867,247.467,93.867,580.267,93.867,580.267C93.867,657.067,153.6,725.333,221.867,725.333C221.867,725.333,802.133,725.333,802.133,725.333C870.4,725.333,930.133,665.6,930.133,580.267C930.133,580.267,930.133,247.467,930.133,247.467C930.133,247.467,930.133,247.467,930.133,247.467" class="icon-window"/></font>
</defs>
</svg>
